BitTorrentTracker PerecTracker.org
BitTorrentTracker PerecTracker.org
    
Регистрация  ·  Вход
 
 · 
Забыли пароль?

  • Восставшие мертвецы / Dead Rising (Зэк Липовски / Zach Lipovsky) [2015, США, ужасы, WEB-DLRip] DVO

    Ответить на тему
     
    Автор Сообщение

    rechyn

    Создавать темы 08-Дек-2015 23:06

           

    [Цитировать]

    Восставшие мертвецы / Dead Rising
    Страна: США
    Жанр: ужасы
    Год выпуска: 2015
    Продолжительность: 01:58:00
    Перевод: Любительский (двухголосый закадровый)
    Cубтитры: нет
    Режиссер: Зэк Липовски / Zach Lipovsky
    В ролях: Киган Коннор Трейси, Меган Ори, Вирджиния Мэдсен, Джесси Меткалф, Деннис Хейсбёрт, Роб Риггл, Джулия Андерсон, Алекс Паунович, Джен Соска, Сильвия Соска
    Описание: В Штатах объявился вирус, превращающий людей в зомби, но властям удалось подавить вспышку эпидемии, создав вакцину под названием Zombrex – она помогает не обращаться в кровожадного мертвеца даже тем, кого укусили зараженные. Однако очередная партия Zombrex оказывается неэффективной и возле гигантского стадиона Metrodome начинается эпидемия. В ее эпицентре оказывается журналист Чейз Картер (Джесси Меткалф), который продолжает репортаж, несмотря на хаос творящийся вокруг.
    Сэмпл: http://multi-up.com/1044901
    Качество видео: WEB-DLRip
    Формат видео: AVI
    Видео: Xvid 720x304 24fps 1297kbps
    Аудио: Dolby AC3 48000Hz stereo 192kbps

    MediaInfo

    General
    Complete name : D:\µTorrent\Vosstavshie.mertvecy.2015.L2.WEBRip.avi
    Format : AVI
    Format/Info : Audio Video Interleave
    File size : 1.24 GiB
    Duration : 1h 57mn
    Overall bit rate : 1 499 Kbps
    Writing application : VirtualDubMod 1.5.10.2 (build 2540/release)
    Writing library : VirtualDubMod build 2540/release
    Video
    ID : 0
    Format : MPEG-4 Visual
    Format profile : Advanced Simple@L5
    Format settings, BVOP : 2
    Format settings, QPel : No
    Format settings, GMC : No warppoints
    Format settings, Matrix : Default (H.263)
    Codec ID : XVID
    Codec ID/Hint : XviD
    Duration : 1h 57mn
    Bit rate : 1 297 Kbps
    Width : 720 pixels
    Height : 304 pixels
    Display aspect ratio : 2.35:1
    Frame rate : 24.000 fps
    Color space : YUV
    Chroma subsampling : 4:2:0
    Bit depth : 8 bits
    Scan type : Progressive
    Compression mode : Lossy
    Bits/(Pixel*Frame) : 0.247
    Stream size : 1.07 GiB (87%)
    Writing library : XviD 1.2.1 (UTC 2008-12-04)
    Audio
    ID : 1
    Format : AC-3
    Format/Info : Audio Coding 3
    Mode extension : CM (complete main)
    Codec ID : 2000
    Duration : 1h 57mn
    Bit rate mode : Constant
    Bit rate : 192 Kbps
    Channel(s) : 2 channels
    Channel positions : Front: L R
    Sampling rate : 48.0 KHz
    Bit depth : 16 bits
    Compression mode : Lossy
    Stream size : 162 MiB (13%)
    Alignment : Split accross interleaves
    Interleave, duration : 42 ms (1.00 video frame)
    Interleave, preload duration : 500 ms

    Скриншот c названием фильма

    Скриншоты

    Скачать .torrent

    Скачать торрент-файл бесплатно и на максимальной скорости!

    Как скачивать? · Что такое торрент? · Рейтинг и ограничения

    !ВНИМАНИЕ!
    Сайт не распространяет и не хранит электронные версии произведений, а занимается лишь лишь предоставлением доступа к создаваемому пользователями каталогу ссылок на торрент-файлы, которые содержат только списки хеш-сумм, убедительная просьба с жалобами обращаться напрямую к пользователю. Файлы для обмена на трекере предоставлены пользователями сайта, и администрация не несёт ответственности за их содержание. Просьба не заливать файлы, защищенные авторскими правами, а также файлы нелегального содержания!


    _________________
    [Профиль] [ЛС]
    Показать сообщения:    
    Ответить на тему

    Текущее время: Сегодня, в 10:19

    Часовой пояс: GMT + 2



    Вы не можете начинать темы
    Вы не можете отвечать на сообщения
    Вы не можете редактировать свои сообщения
    Вы не можете удалять свои сообщения
    Вы не можете голосовать в опросах
    Вы не можете прикреплять файлы к сообщениям
    Вы не можете скачивать файлы