BitTorrentTracker PerecTracker.org
BitTorrentTracker PerecTracker.org
    
Регистрация  ·  Вход
 
 · 
Забыли пароль?

  • Эвакуатор / Wrecker (Майкл Бафаро / Micheal Bafaro) [2015, Канада, Триллер, HDRip] VO (Васька Куролесов)

    Ответить на тему
     
    Автор Сообщение

    rechyn

    Создавать темы 08-Дек-2015 23:05

           

    [Цитировать]

    Эвакуатор / Wrecker
    Страна: Канада
    Жанр: Триллер
    Год выпуска: 2015
    Продолжительность: 01:23:14
    Перевод: Одноголосый закадровый Васька Куролесов по субтитрам МЕГАПЫХАРЬ
    Cубтитры: нет
    Оригинальная аудиодорожка: нет
    Режиссер: Майкл Бафаро / Micheal Bafaro
    В ролях: Анна Хатчисон, Андреа Уитберн, Дженнифер Кениг, Дон Нодел, Майкл Диксон, Кертис Магвайр, Лори Уотт, Селия Рид
    Описание: Лучшие подруги Эмили и Лесли решают отправиться в поездку, чтобы отдохнуть от жизни. По совету навигатора они сворачивают с оживленного шоссе на пустынную дорогу. Вскоре они становятся объектом преследования таинственного грузовика, который заставляет девушек сыграть в опасную игру, превращая их поездку в жуткий кошмар.
    Сэмпл: http://multi-up.com/1074789
    Качество видео: HDRip
    Формат видео: AVI
    Видео: XviD, 1989 Кбит/с, 720x304, 23.976 fps
    Аудио: AC3, 2 ch, 192 Кбит/с, 48.0 KHz
    Релиз:

    MediaInfo

    General
    Complete name : G:\Wrecker.2015.HDRip.XviD_KypoJIecoB.avi
    Format : AVI
    Format/Info : Audio Video Interleave
    File size : 1.27 GiB
    Duration : 1h 23mn
    Overall bit rate : 2 190 Kbps
    Video
    ID : 0
    Format : MPEG-4 Visual
    Format profile : Advanced Simple@L5
    Format settings, BVOP : 2
    Format settings, QPel : No
    Format settings, GMC : No warppoints
    Format settings, Matrix : Default (H.263)
    Codec ID : XVID
    Codec ID/Hint : XviD
    Duration : 1h 23mn
    Bit rate : 1 988 Kbps
    Width : 720 pixels
    Height : 304 pixels
    Display aspect ratio : 2.35:1
    Frame rate : 23.976 fps
    Color space : YUV
    Chroma subsampling : 4:2:0
    Bit depth : 8 bits
    Scan type : Progressive
    Compression mode : Lossy
    Bits/(Pixel*Frame) : 0.379
    Stream size : 1.16 GiB (91%)
    Writing library : XviD 66
    Audio
    ID : 1
    Format : AC-3
    Format/Info : Audio Coding 3
    Mode extension : CM (complete main)
    Format settings, Endianness : Big
    Codec ID : 2000
    Duration : 1h 23mn
    Bit rate mode : Constant
    Bit rate : 192 Kbps
    Channel(s) : 2 channels
    Channel positions : Front: L R
    Sampling rate : 48.0 KHz
    Compression mode : Lossy
    Stream size : 114 MiB (9%)
    Alignment : Split accross interleaves
    Interleave, duration : 42 ms (1.00 video frame)
    Interleave, preload duration : 500 ms

    Скриншот c названием фильма

    Скриншоты

    Скачать .torrent

    Скачать торрент-файл бесплатно и на максимальной скорости!

    Как скачивать? · Что такое торрент? · Рейтинг и ограничения

    !ВНИМАНИЕ!
    Сайт не распространяет и не хранит электронные версии произведений, а занимается лишь лишь предоставлением доступа к создаваемому пользователями каталогу ссылок на торрент-файлы, которые содержат только списки хеш-сумм, убедительная просьба с жалобами обращаться напрямую к пользователю. Файлы для обмена на трекере предоставлены пользователями сайта, и администрация не несёт ответственности за их содержание. Просьба не заливать файлы, защищенные авторскими правами, а также файлы нелегального содержания!


    _________________
    [Профиль] [ЛС]
    Показать сообщения:    
    Ответить на тему

    Текущее время: Сегодня, в 23:58

    Часовой пояс: GMT + 2



    Вы не можете начинать темы
    Вы не можете отвечать на сообщения
    Вы не можете редактировать свои сообщения
    Вы не можете удалять свои сообщения
    Вы не можете голосовать в опросах
    Вы не можете прикреплять файлы к сообщениям
    Вы не можете скачивать файлы