BitTorrentTracker PerecTracker.org
BitTorrentTracker PerecTracker.org
    
Регистрация  ·  Вход
 
 · 
Забыли пароль?

  • Банда Йонссона. Большой куш / Jonssonligan. Den perfekta stoten (Алэн Дарборг / Alain Darborg) [2015, Швеция, детектив, комедия, DVDRip-AVC] Sub Rus + Original Swe

    Ответить на тему
     
    Автор Сообщение

    rechyn

    Создавать темы 08-Дек-2015 23:05

           

    [Цитировать]

    Банда Йонссона. Большой куш / Jonssonligan. Den perfekta stoten
    Страна: Швеция
    Жанр: детектив, комедия
    Год выпуска: 2015
    Продолжительность: 01:31:30
    Перевод: Субтитры (М.Васильев)
    Cубтитры: русские
    Оригинальная аудиодорожка: шведский
    Режиссер: Алэн Дарборг / Alain Darborg
    В ролях: Симон Бергер, Александр Карим, Торкель Петерссон, Сюзанна Торсон, Йенс Хультен
    Описание: Йонссон - мелкий мошенник, промышляющий угоном машин. Потеряв напарника, с которым проработал много лет, он решает переключиться на крупные дела. Он собирает команду из профессиональных жуликов и отправляется грабить банк...
    Доп. информация: "Банда Йонссона" - шведская франшиза о похождениях группы грабителей. Оригинальный киносериал снимался с 1981 по 2006 год, за это время вышло 12 фильмов. В 2013 было обьявлено, что франшизу перезапускают с новым актерским составом . Фильм "Большой куш" - первая часть новой киносерии.
    Сэмпл
    IMDB
    КИНОПОИСК
    Релиз подготовлен ВК группой СКАНДИНАВСКИЙ КАЛЕЙДОСКОП
    Качество видео: DVDRip-AVC
    Формат видео: MKV
    Видео: 2000 Kbps, 1152x490 (2.35:1) 24 000 fps, AVC
    Аудио: 448 Kbps, 48.0 KHz, 16 bits, 2 ch, AC 3
    Формат субтитров: softsub (SRT)

    MediaInfo

    eneral
    Unique ID : 219748495677884840512126495338566339091 (0xA55205538AE723095C2EE0E399FD4A13)
    Complete name : C:\Users\Владелец\Desktop\БандаЙонссона\БандаЙонссона.mkv
    Format : Matroska
    Format version : Version 2
    File size : 1.55 GiB
    Duration : 1h 31mn
    Overall bit rate : 2 423 Kbps
    Encoded date : UTC
    Writing application : HandBrake 0.10.2 2015060900
    Writing library : Lavf55.12.0
    Video
    ID : 1
    Format : AVC
    Format/Info : Advanced Video Codec
    Format profile : High@L4.1
    Format settings, CABAC : Yes
    Format settings, ReFrames : 9 frames
    Codec ID : V_MPEG4/ISO/AVC
    Duration : 1h 31mn
    Bit rate : 2 000 Kbps
    Width : 1 152 pixels
    Height : 490 pixels
    Display aspect ratio : 2.35:1
    Frame rate mode : Constant
    Frame rate : 24.000 fps
    Color space : YUV
    Chroma subsampling : 4:2:0
    Bit depth : 8 bits
    Scan type : Progressive
    Bits/(Pixel*Frame) : 0.148
    Stream size : 1.23 GiB (80%)
    Writing library : x264 core 142 r2479 dd79a61
    Encoding settings : cabac=1 / ref=9 / deblock=1:-3:-3 / analyse=0x3:0x133 / me=umh / subme=9 / psy=1 / psy_rd=1.00:0.00 / mixed_ref=1 / me_range=24 / chroma_me=1 / trellis=2 / 8x8dct=1 / cqm=0 / deadzone=21,11 / fast_pskip=0 / chroma_qp_offset=-2 / threads=6 / lookahead_threads=1 / sliced_threads=0 / nr=0 / decimate=1 / interlaced=0 / bluray_compat=0 / constrained_intra=0 / bframes=6 / b_pyramid=2 / b_adapt=2 / b_bias=0 / direct=3 / weightb=1 / open_gop=0 / weightp=2 / keyint=240 / keyint_min=24 / scenecut=40 / intra_refresh=0 / rc_lookahead=60 / rc=abr / mbtree=1 / bitrate=2000 / ratetol=1.0 / qcomp=0.60 / qpmin=0 / qpmax=69 / qpstep=4 / vbv_maxrate=62500 / vbv_bufsize=78125 / nal_hrd=none / filler=0 / ip_ratio=1.40 / aq=2:1.00
    Default : Yes
    Forced : No
    Color primaries : BT.709
    Transfer characteristics : BT.709
    Matrix coefficients : BT.709
    Audio
    ID : 2
    Format : AC-3
    Format/Info : Audio Coding 3
    Format profile : Dolby Digital
    Mode extension : CM (complete main)
    Format settings, Endianness : Big
    Codec ID : A_AC3
    Duration : 1h 31mn
    Bit rate mode : Constant
    Bit rate : 448 Kbps
    Channel(s) : 2 channels
    Channel positions : Front: L R
    Sampling rate : 48.0 KHz
    Bit depth : 16 bits
    Compression mode : Lossy
    Delay relative to video : 1mn 5s
    Stream size : 293 MiB (18%)
    Title : Stereo
    Default : Yes
    Forced : No

    Скриншот c названием фильма

    Скриншоты





    Титры

    1
    00:00:21,480 --> 00:00:26,702
    Спортивный седан класса люкс.
    Таких в Швеции всего два.
    2
    00:00:26,860 --> 00:00:30,910
    Один принадлежит
    члену королевской семьи,
    3
    00:00:33,450 --> 00:00:35,703
    а второй - перед нами.
    4
    00:00:38,455 --> 00:00:43,507
    К тачке можно подобраться только,
    когда "мистер Чувак" пьет кофе.
    5
    00:00:43,669 --> 00:00:47,048
    - Мистер кто?
    - "Алло, чувак!"
    6
    00:00:47,214 --> 00:00:48,761
    Ясно.
    7
    00:00:50,342 --> 00:00:53,471
    - Доброе утро.
    - Доброе.
    8
    00:00:57,474 --> 00:01:03,356
    У них аппарат "Экспо",
    он готовит кофе 3 минуты.
    9
    00:01:03,522 --> 00:01:06,321
    Вечно у тебя
    все просчитано.
    10
    00:01:09,194 --> 00:01:14,701
    Извините, но кофе-машина
    сломалась. Мне очень жаль.
    11
    00:01:15,492 --> 00:01:19,668
    Вчера изучали новые
    формы шифрования.
    12
    00:01:20,622 --> 00:01:23,250
    Во, блин...
    13
    00:01:23,417 --> 00:01:26,796
    Вот это номер.
    Едем!
    14
    00:01:26,962 --> 00:01:31,843
    - Нас поймают.
    - Нас и так поймают.
    15
    00:01:32,009 --> 00:01:36,936
    - Успокойся. Есть план Б.
    - Он идет сюда.
    16
    00:01:37,097 --> 00:01:42,024
    Сейчас пойдет автобус...
    3, 2, 1.
    17
    00:02:04,666 --> 00:02:07,089
    Ты - гений!
    18
    00:02:07,252 --> 00:02:11,928
    Это чувство, когда все удалось -
    с ним ничто не сравнится.
    19
    00:02:13,050 --> 00:02:17,897
    "Лексус" стоит здесь.
    Хозяин на работе до 21.
    20
    00:02:18,055 --> 00:02:21,525
    Охранник парковки
    делает обход в...
    21
    00:02:21,683 --> 00:02:24,653
    Ральф!
    22
    00:02:25,896 --> 00:02:28,024
    Взгляни.
    23
    00:02:29,816 --> 00:02:33,286
    - Она все таки попалась.
    - Ну, да.
    24
    00:02:36,740 --> 00:02:38,708
    Идем.
    25
    00:02:38,909 --> 00:02:42,539
    Сколько девушек у тебя
    было после нее?
    Скачать .torrent

    Скачать торрент-файл бесплатно и на максимальной скорости!

    Как скачивать? · Что такое торрент? · Рейтинг и ограничения

    !ВНИМАНИЕ!
    Сайт не распространяет и не хранит электронные версии произведений, а занимается лишь лишь предоставлением доступа к создаваемому пользователями каталогу ссылок на торрент-файлы, которые содержат только списки хеш-сумм, убедительная просьба с жалобами обращаться напрямую к пользователю. Файлы для обмена на трекере предоставлены пользователями сайта, и администрация не несёт ответственности за их содержание. Просьба не заливать файлы, защищенные авторскими правами, а также файлы нелегального содержания!


    _________________
    [Профиль] [ЛС]
    Показать сообщения:    
    Ответить на тему

    Текущее время: Сегодня, в 23:23

    Часовой пояс: GMT + 2



    Вы не можете начинать темы
    Вы не можете отвечать на сообщения
    Вы не можете редактировать свои сообщения
    Вы не можете удалять свои сообщения
    Вы не можете голосовать в опросах
    Вы не можете прикреплять файлы к сообщениям
    Вы не можете скачивать файлы