Register  ·  Log in
Forgot password?

  • Вой / Howl (Пол Хайет / Paul Hyett) [2015, Великобритания, ужасы, HDRip] VO (Paul Bunyan)

    Reply to topic
    Author Message


    Post 09-Dec-2015 00:05



    Вой / Howl
    Страна: Великобритания
    Жанр: ужасы
    Год выпуска: 2015
    Продолжительность: 01:32:25
    Перевод: Одноголосый закадровый Paul Bunyan
    Cубтитры: нет
    Режиссер: Пол Хайет / Paul Hyett
    В ролях: Эдвард Спелирс, Холли Уэстон, Эллиот Кауэн, Амит Шах, Сэм Гиттинс, Шона МакДональд, Дункан Престон, Аня Марсон, Рози Дэй, Кэлвин Дин
    Описание: После того, как зверь напал на пассажиров поезда, им нужно объединиться, чтобы дожить до утра.
    Качество видео: HDRip (исходник не известен)
    Формат видео: AVI
    Видео: Xvid 720x304 24.00fps 1 779 Kbps
    Аудио: Dolby AC3 48000Hz 6ch 448kbps


    Format : AVI
    Format/Info : Audio Video Interleave
    File size : 1.44 GiB
    Duration : 1h 32mn
    Overall bit rate : 2 237 Kbps
    Writing application : VirtualDubMod | || (build 2550/release)
    Writing library : VirtualDubMod build 2550/release
    ID : 0
    Format : MPEG-4 Visual
    Format profile : AdvancedSimple@L5
    Format settings, BVOP : Yes
    Format settings, QPel : No
    Format settings, GMC : No warppoints
    Format settings, Matrix : Custom
    Codec ID : XVID
    Codec ID/Hint : XviD
    Duration : 1h 32mn
    Bit rate : 1 779 Kbps
    Width : 720 pixels
    Height : 304 pixels
    Display aspect ratio : 2.35:1
    Frame rate : 24.000 fps
    Resolution : 24 bits
    Colorimetry : 4:2:0
    Scan type : Progressive
    Bits/(Pixel*Frame) : 0.339
    Stream size : 1.15 GiB (80%)
    Writing library : XviD 73
    ID : 1
    Format : AC-3
    Format/Info : Audio Coding 3
    Codec ID : 2000
    Duration : 1h 32mn
    Bit rate mode : Constant
    Bit rate : 448 Kbps
    Channel(s) : 6 channels
    Channel positions : Front: L C R, Surround: L R, LFE
    Sampling rate : 48.0 KHz
    Stream size : 296 MiB (20%)
    Alignment : Split accross interleaves
    Interleave, duration : 42 ms (1.00 video frame)
    Interleave, preload duration : 500 ms

    Скриншот c названием фильма


    Download .torrent

    Download free and at maximum speed!

    How to Download? · What is a torrent? · Ratings and Limitations

    The site does not extend and does not store electronic(digital) versions of products, and only gives access to a reference catalogue created by users on torrent-files which contain only lists of the hash-sums, the earnest entreaty, with complaints(abuse) to access directly to the user. Files for an exchange on tracker are given by users of a site, and the administration does not bear the responsibility for their maintenance. The request to not fill in the files protected by copyrights, and also files of the illegal maintenance!

    [Profile] [PM]
    Display posts from previous:    
    Reply to topic

    The time now is: Today 18:58

    All times are GMT + 3 Hours

    You cannot post new topics in this forum
    You cannot reply to topics in this forum
    You cannot edit your posts in this forum
    You cannot delete your posts in this forum
    You cannot vote in polls in this forum
    You cannot attach files in this forum
    You cannot download files in this forum