BitTorrentTracker PerecTracker.org
BitTorrentTracker PerecTracker.org
    
Регистрация  ·  Вход
 
 · 
Забыли пароль?

  • Безумный Макс: Дорога ярости / Mad Max: Fury Road (Джордж Миллер / George Miller) [2015, Австралия, США, Футуристическая драма, фантастика, приключения, BDRip] AVO (Л. Володарский)

    Ответить на тему
     
    Автор Сообщение

    rechyn

    Создавать темы 08-Дек-2015 23:05

           

    [Цитировать]

    Безумный Макс: Дорога ярости / Mad Max: Fury Road
    Страна: Австралия, США
    Жанр: Футуристическая драма, фантастика, приключения
    Год выпуска: 2015
    Продолжительность: 02:00:23
    Перевод: Авторский (одноголосый закадровый) Л. Володарский
    Cубтитры: отсутствуют
    Оригинальная аудиодорожка: нет
    Режиссер: Джордж Миллер / George Miller
    В ролях: Том Харди, Шарлиз Терон, Зои Кравец, Николас Холт, Рози Хантингтон-Уайтели, Райли Кеох, Натан Джоунс, Меган Гэйл, Джош Хелман, Хью Кийс-Байрн, Энгус Сэмпсон, Ричард Нортон и др.
    Описание: Сюжет в новом фильме про Макса довольно прост и незамысловат... Мы в очередной раз будем наблюдать за судьбой главного героя в мире охваченном безумием, уничтоженном и превращённом в безжизненную пустыню... На дороге, дороге ярости, перед Максом появился новый злодей. Точнее сказать, в новых реалиях окружающей действительности сложившихся в мире, появился новый тиран. Тиран возвёл себя в ранг божества и возглавил армию мракобесных фанатиков, заветная мечта любого из них - умереть во славу своего бога...

    Качество видео: BDRip [Mad_Max_Fury_Road_2015_1080p_BluRay_AVC_TrueHD_7.1_BAKED]
    Формат видео: AVI
    Video: 720x304 (2.37:1), 23.976 fps, XviD build 66 ~2142 kbps avg, 0.41 bit/pixel
    Audio: 48 kHz, AC3 Dolby Digital, 3/2 (L,C,R,l,r) + LFE ch, ~448 kbps

    AviInfo

    File: Mad_Max_Fury_Road_2015_BDRip_[perectracker.org].aviFilesize: 2236.29 Mb ( 2 344 916 992 bytes )Play length: 02:00:23.382 (173188 frames)Subtitles: Not PresentVideo: 720x304 (2.37:1), 23.976 fps, XviD build 66 ~2142 kbps avg, 0.41 bit/pixelAudio: 48 kHz, AC3 Dolby Digital, 3/2 (L,C,R,l,r) + LFE ch, ~448 kbps

    MediaInfo

    ОбщееПолное имя : Р:\Mad_Max_Fury_Road_2015_BDRip_[perectracker.org].aviФормат : AVIФормат/Информация : Audio Video InterleaveПрофиль формата : OpenDMLРазмер файла : 2,18 ГбайтПродолжительность : 2 ч. 0 м.Общий поток : 2597 Кбит/секПрограмма кодирования : VirtualDubModRus 1.5.10.2 (build 2542/release)Библиотека кодирования : VirtualDubMod build 2542/release
    ВидеоИдентификатор : 0Формат : MPEG-4 VisualПрофиль формата : Advanced Simple@L5Параметр BVOP формата : 2Параметр QPel формата : НетПараметр GMC формата : Без точки переходаПараметр матрицы формата : ВыборочнаяИдентификатор кодека : DX50Идентификатор кодека/Подсказка : DivX 5Продолжительность : 2 ч. 0 м.Битрейт : 2137 Кбит/секШирина : 720 пикселейВысота : 304 пикселяСоотношение сторон : 2,35:1Частота кадров : 23,976 кадра/секЦветовое пространство : YUVСубдискретизация насыщенности : 4:2:0Битовая глубина : 8 битТип развёртки : ПрогрессивнаяМетод сжатия : С потерямиБит/(Пиксели*Кадры) : 0.407Размер потока : 1,80 Гбайт (82%)Библиотека кодирования : XviD 66
    АудиоИдентификатор : 1Формат : AC-3Формат/Информация : Audio Coding 3Расширение режима : CM (complete main)Параметр Endianness формата : BigИдентификатор кодека : 2000Продолжительность : 2 ч. 0 м.Вид битрейта : ПостоянныйБитрейт : 448 Кбит/секКаналы : 6 каналовРасположение каналов : Front: L C R, Side: L R, LFEЧастота : 48,0 КГцБитовая глубина : 16 битМетод сжатия : С потерямиРазмер потока : 386 Мбайт (17%)Выравнивание : Разделение по промежуткамПродолжительность промежутка : 42 мс. (1,00 видеокадр)Время предзагрузки промежутка : 500 мс.

    Скриншот c названием фильма

    Скриншоты

    Время раздачи - по возможности.
    Скачать .torrent

    Скачать торрент-файл бесплатно и на максимальной скорости!

    Как скачивать? · Что такое торрент? · Рейтинг и ограничения

    !ВНИМАНИЕ!
    Сайт не распространяет и не хранит электронные версии произведений, а занимается лишь лишь предоставлением доступа к создаваемому пользователями каталогу ссылок на торрент-файлы, которые содержат только списки хеш-сумм, убедительная просьба с жалобами обращаться напрямую к пользователю. Файлы для обмена на трекере предоставлены пользователями сайта, и администрация не несёт ответственности за их содержание. Просьба не заливать файлы, защищенные авторскими правами, а также файлы нелегального содержания!


    _________________
    [Профиль] [ЛС]
    Показать сообщения:    
    Ответить на тему

    Текущее время: Сегодня, в 11:40

    Часовой пояс: GMT + 2



    Вы не можете начинать темы
    Вы не можете отвечать на сообщения
    Вы не можете редактировать свои сообщения
    Вы не можете удалять свои сообщения
    Вы не можете голосовать в опросах
    Вы не можете прикреплять файлы к сообщениям
    Вы не можете скачивать файлы