BitTorrentTracker PerecTracker.org
BitTorrentTracker PerecTracker.org
    
Регистрация  ·  Вход
 
 · 
Забыли пароль?

  • Сквозь тернии / If There Be Thorns (Нэнси Сэвока / Nancy Savoca) [2015, Канада, США, Психологическая драма, трагедия, WEB-DLRip] VO

    Ответить на тему
     
    Автор Сообщение

    rechyn

    Создавать темы 08-Дек-2015 23:05

           

    [Цитировать]

    Сквозь тернии / If There Be Thorns
    Совместное производство: Канада, США
    Жанр: Психологическая драма, трагедия
    Год выпуска: 2015
    Продолжительность: 01:40:02
    Перевод: Одноголосый закадровый
    Cубтитры: отсутствуют
    Оригинальная аудиодорожка: нет
    Режиссёр: Нэнси Сэвока / Nancy Savoca
    Актёры: Хэзер Грэм, Рейчал Карпани, Джейсон Льюис, Мэйсон Кук, МакКензи Грэй, Джедидайя Гудакр, Эмили Теннант, Кристин Липпа, Глайнис Дейвис, Вина Суд, и др.
    Аннотация: Кэтрин и Кристофер Доллангенджеры живут счастливой семейной жизнью со своими детьми, которые не подозревают о том, что у родителей могут быть неафишируемые тайны... Однажды в соседний дом переезжает таинственная пожилая женщина - бабушка божий одуванчик, она сближается с их младшим сыном, после чего у него начинается странное поведение по отношению к родителям... Когда Кристофер увидел таинственную соседку, с ужасом понял, что это его мать... Рано или поздно всё тайное становится явным, вот и теперь, все семейные тайны раскрываются в форме трагической кульминации...

    Качество видео: WEB-DLRip
    Формат видео: AVI
    Video: 720x400 (1.80:1), 23.976 fps, XviD build 73 ~1901 kbps avg, 0.28 bit/pixel
    Audio: 48 kHz, AC3 Dolby Digital, 2/0 (L,R) ch, ~192 kbps

    AviInfo

    File: If_There_Be_Thorns_2015_WEB-DLRip_[perectracker.org].aviFilesize: 1504.79 Mb ( 1 577 891 840 bytes )Play length: 01:40:02.923 (143926 frames)Subtitles: Not PresentVideo: 720x400 (1.80:1), 23.976 fps, XviD build 73 ~1901 kbps avg, 0.28 bit/pixelAudio: 48 kHz, AC3 Dolby Digital, 2/0 (L,R) ch, ~192 kbps

    MediaInfo

    ОбщееПолное имя : V:\If_There_Be_Thorns_2015_WEB-DLRip_[perectracker.org].aviФормат : AVIФормат/Информация : Audio Video InterleaveРазмер файла : 1,47 ГбайтПродолжительность : 1 ч. 40 м.Общий поток : 2103 Кбит/секПрограмма кодирования : VirtualDubModRus 1.5.10.2 (build 2542/release)Библиотека кодирования : VirtualDubMod build 2542/release
    ВидеоИдентификатор : 0Формат : MPEG-4 VisualПрофиль формата : Advanced Simple@L5Параметр BVOP формата : 1Параметр QPel формата : НетПараметр GMC формата : Без точки переходаПараметр матрицы формата : ВыборочнаяИдентификатор кодека : DX50Идентификатор кодека/Подсказка : DivX 5Продолжительность : 1 ч. 40 м.Битрейт : 1902 Кбит/секШирина : 720 пикселейВысота : 400 пикселейСоотношение сторон : 16:9Частота кадров : 23,976 кадра/секЦветовое пространство : YUVСубдискретизация насыщенности : 4:2:0Битовая глубина : 8 битТип развёртки : ПрогрессивнаяМетод сжатия : С потерямиБит/(Пиксели*Кадры) : 0.275Размер потока : 1,33 Гбайт (90%)Библиотека кодирования : XviD 73
    АудиоИдентификатор : 1Формат : AC-3Формат/Информация : Audio Coding 3Расширение режима : CM (complete main)Параметр Endianness формата : BigИдентификатор кодека : 2000Продолжительность : 1 ч. 40 м.Вид битрейта : ПостоянныйБитрейт : 192 Кбит/секКаналы : 2 каналаРасположение каналов : Front: L RЧастота : 48,0 КГцБитовая глубина : 16 битМетод сжатия : С потерямиРазмер потока : 137 Мбайт (9%)Выравнивание : Соединение по промежуткамПродолжительность промежутка : 42 мс. (1,00 видеокадр)Время предзагрузки промежутка : 512 мс.

    Скриншот c названием фильма

    Скриншоты

    Время раздачи - по возможности.
    Скачать .torrent

    Скачать торрент-файл бесплатно и на максимальной скорости!

    Как скачивать? · Что такое торрент? · Рейтинг и ограничения

    !ВНИМАНИЕ!
    Сайт не распространяет и не хранит электронные версии произведений, а занимается лишь лишь предоставлением доступа к создаваемому пользователями каталогу ссылок на торрент-файлы, которые содержат только списки хеш-сумм, убедительная просьба с жалобами обращаться напрямую к пользователю. Файлы для обмена на трекере предоставлены пользователями сайта, и администрация не несёт ответственности за их содержание. Просьба не заливать файлы, защищенные авторскими правами, а также файлы нелегального содержания!


    _________________
    [Профиль] [ЛС]
    Показать сообщения:    
    Ответить на тему

    Текущее время: Сегодня, в 06:04

    Часовой пояс: GMT + 2



    Вы не можете начинать темы
    Вы не можете отвечать на сообщения
    Вы не можете редактировать свои сообщения
    Вы не можете удалять свои сообщения
    Вы не можете голосовать в опросах
    Вы не можете прикреплять файлы к сообщениям
    Вы не можете скачивать файлы