BitTorrentTracker PerecTracker.org
BitTorrentTracker PerecTracker.org
    
Регистрация  ·  Вход
 
 · 
Забыли пароль?

  • Мы / Vi (Мани Масеррат Агах / Mani Maserrat Agah) [2013, Швеция, драма, DVDRip] Sub Rus + Original Swe

    Ответить на тему
     
    Автор Сообщение

    Light

    Создавать темы 08-Дек-2015 23:05

           

    [Цитировать]

    Мы / Vi
    Страна: Швеция
    Жанр: Драма
    Год выпуска: 2013
    Продолжительность: 01:34:01
    Перевод: Субтитры Orion2033
    Cубтитры: русские
    Оригинальная аудиодорожка: шведский
    Режиссер: Мани Масеррат Агах / Mani Maserrat Agah
    В ролях: Густаф Скарсгард, Анна Острём, Ребекка Фергюсон, Кевин Ваз, Стен Льюнггрен
    Описание: Молодая пара Ида и Кристер безумно любят друг друга, но постепенно эйфория первых чувств проходит и повседневность вмешивается в их отношения. Совместная жизнь постепенно превращает их отношения в нечто кошмарное. Попытки достичь компромисса и приспособиться друг к другу, заставляют героев идти на необдуманные поступки, что, в конечном итоге, приводит к катастрофическим последствиям.
    Сэмпл: https://yadi.sk/i/my-xXaJsihcAM
    Качество видео: DVDRip
    Формат видео: AVI
    Видео: XviD MPEG-4, 608x320, (1.90:1), 25 fps, 902 kbps
    Аудио: MPEG Layer 3, 48 kHz, 128 kbps, 2 ch
    Формат субтитров: softsub (SRT)

    MediaInfo

    Общее
    Полное имя : C:\11 Torrent\00 в работе\мои раздачи\Vi.2013.SWEDiSH.DVDRip.XviD-Haribo\Vi.2013.SWEDiSH.DVDRip.XviD-Haribo.avi
    Формат : AVI
    Формат/Информация : Audio Video Interleave
    Размер файла : 700 Мбайт
    Продолжительность : 1 ч. 34 м.
    Общий поток : 1040 Кбит/сек
    Программа кодирования : FairUse Wizard - http://fairusewizard.com
    Библиотека кодирования : The best and REALLY easy backup tool
    Видео
    Идентификатор : 0
    Формат : MPEG-4 Visual
    Профиль формата : Advanced Simple@L5
    Параметр BVOP формата : 1
    Параметр QPel формата : Нет
    Параметр GMC формата : Без точки перехода
    Параметр матрицы формата : Default (MPEG)
    Режим смешивания : Сжатый битовый поток
    Идентификатор кодека : XVID
    Идентификатор кодека/Подсказка : XviD
    Продолжительность : 1 ч. 34 м.
    Битрейт : 903 Кбит/сек
    Ширина : 608 пикселей
    Высота : 320 пикселей
    Соотношение сторон : 1,900
    Частота кадров : 25,000 кадров/сек
    Цветовое пространство : YUV
    Субдискретизация насыщенности : 4:2:0
    Битовая глубина : 8 бит
    Тип развёртки : Прогрессивная
    Метод сжатия : С потерями
    Бит/(Пиксели*Кадры) : 0.186
    Размер потока : 607 Мбайт (87%)
    Библиотека кодирования : XviD 1.2.0.dev47 (UTC 2006-11-01)
    Аудио
    Идентификатор : 1
    Формат : MPEG Audio
    Версия формата : Version 1
    Профиль формата : Layer 3
    Режим : Joint stereo
    Расширение режима : MS Stereo
    Идентификатор кодека : 55
    Идентификатор кодека/Подсказка : MP3
    Продолжительность : 1 ч. 34 м.
    Вид битрейта : Постоянный
    Битрейт : 128 Кбит/сек
    Каналы : 2 канала
    Частота : 48,0 КГц
    Метод сжатия : С потерями
    Размер потока : 86,1 Мбайт (12%)
    Выравнивание : Соединение по промежуткам
    Продолжительность промежутка : 40 мс. (1,00 видеокадр)
    Время предзагрузки промежутка : 504 мс.
    Библиотека кодирования : LAME3.97
    Настройки программы : -m j -V 4 -q 2 -lowpass 17 -b 128

    Скриншоты

    Скачать .torrent

    Скачать торрент-файл бесплатно и на максимальной скорости!

    Как скачивать? · Что такое торрент? · Рейтинг и ограничения

    !ВНИМАНИЕ!
    Сайт не распространяет и не хранит электронные версии произведений, а занимается лишь лишь предоставлением доступа к создаваемому пользователями каталогу ссылок на торрент-файлы, которые содержат только списки хеш-сумм, убедительная просьба с жалобами обращаться напрямую к пользователю. Файлы для обмена на трекере предоставлены пользователями сайта, и администрация не несёт ответственности за их содержание. Просьба не заливать файлы, защищенные авторскими правами, а также файлы нелегального содержания!


    _________________
    [Профиль] [ЛС]
    Показать сообщения:    
    Ответить на тему

    Текущее время: Сегодня, в 11:05

    Часовой пояс: GMT + 2



    Вы не можете начинать темы
    Вы не можете отвечать на сообщения
    Вы не можете редактировать свои сообщения
    Вы не можете удалять свои сообщения
    Вы не можете голосовать в опросах
    Вы не можете прикреплять файлы к сообщениям
    Вы не можете скачивать файлы