BitTorrentTracker PerecTracker.org
BitTorrentTracker PerecTracker.org
    
Регистрация  ·  Вход
 
 · 
Забыли пароль?

  • Пункт назначения 5 / Final Destination 5 (Стивен Куэйл / Steven Quale) [2011, США, триллер, BDRip-AVC] Dub + AVO (Гаврилов) + Original (Eng) + Sub (Rus, Eng)

    Ответить на тему
     
    Автор Сообщение

    Light

    Создавать темы 08-Дек-2015 23:05

           

    [Цитировать]

    Пункт назначения 5 / Final Destination 5
    Страна: США
    Жанр: триллер
    Год выпуска: 2011
    Продолжительность: 01:31:49
    Перевод 1: Профессиональный (дублированный)
    Перевод 2: Авторский (одноголосый закадровый) Гаврилов
    Cубтитры: русские (полные, только на экранные тексты, Воронин), английские (полные, SDH)
    Режиссер: Стивен Куэйл / Steven Quale
    В ролях: Николас Д’Агосто, Эмма Белл, Майлз Фишер, Эллен Ро, Жаклин МакИннес Вуд, П.Дж. Бирн, Арлен Эскарпета, Дэвид Кокнер, Кортни Б. Вэнс, Тони Тодд
    Описание: Приквел (возвращение к предистории) культовой серии фильмов на тему фатализма. В роли судьбы выступает сама смерть. Она действует по некоему плану, не оставляя жертвам ни одного шанса. Главные герои "Пункт назначения 5" как правило молодые люди (как и во всей серии фильмов), что придает триллеру особый драматизм.
    В целом, очень качественная чернуха, насыщенная откровенным натурализмом в сценах гибели, да и сама гибель воистину ужасна. Любителям кровавых триллеров посвящается. Детям и людям со слабой психикой смотреть не рекомендуется.
    Доп. информация: Источник http://perectracker.org/viewtopic.php?t=4219153
    Сэмпл: https://www.sendspace.com/file/f3fvmy
    Качество видео: BDRip-AVC
    Формат видео: MKV
    Видео: 1152x480 (2,40:1), 23,976 fps, AVC (H.264) ~3500 kbps avg, 0.264 bit/pixel
    Аудио 1: Russian, AC3, 6ch, 48 kHz, 448 kbps (дубляж)
    Аудио 2: Russian, AC3, 6ch, 48 kHz, 448 kbps (авторский, Гаврилов)
    Аудио 3: English, AC3, 6ch, 48 kHz, 448 kbps (оригинал)

    MediaInfo

    Общее
    Уникальный идентификатор : 182070254946523199784267469222184149108 (0x88F974A2184EFA3898486BE89442E074)
    Полное имя : D:\КИНО\Пункт назначения 5.mkv
    Формат : Matroska
    Версия формата : Version 4 / Version 2
    Размер файла : 3,11 Гбайт
    Продолжительность : 1 ч. 31 м.
    Общий поток : 4845 Кбит/сек
    Дата кодирования : UTC 2015-11-03 15:32:27
    Программа кодирования : mkvmerge v8.1.0 ('Psychedelic Postcard') 32bit
    Библиотека кодирования : libebml v1.3.1 + libmatroska v1.4.2
    DURATION : 01:31:50.912000000
    NUMBER_OF_FRAMES : 172216
    NUMBER_OF_BYTES : 308611072
    _STATISTICS_WRITING_APP : mkvmerge v8.1.0 ('Psychedelic Postcard') 32bit
    _STATISTICS_WRITING_DATE_UTC : 2015-11-03 15:32:27
    _STATISTICS_TAGS : BPS DURATION NUMBER_OF_FRAMES NUMBER_OF_BYTES
    Видео
    Идентификатор : 1
    Формат : AVC
    Формат/Информация : Advanced Video Codec
    Профиль формата : High@L4.1
    Параметр CABAC формата : Да
    Параметр ReFrames формата : 15 кадров
    Идентификатор кодека : V_MPEG4/ISO/AVC
    Продолжительность : 1 ч. 31 м.
    Битрейт : 3499 Кбит/сек
    Ширина : 1152 пикселя
    Высота : 480 пикселей
    Соотношение сторон : 2,40:1
    Режим частоты кадров : Постоянный
    Частота кадров : 23,976 кадра/сек
    Цветовое пространство : YUV
    Субдискретизация насыщенности : 4:2:0
    Битовая глубина : 8 бит
    Тип развёртки : Прогрессивная
    Бит/(Пиксели*Кадры) : 0.264
    Размер потока : 2,18 Гбайт (70%)
    Библиотека кодирования : x264 core 146 r2538 121396c
    Настройки программы : cabac=1 / ref=15 / deblock=1:-2:-1 / analyse=0x3:0x133 / me=umh / subme=10 / psy=1 / psy_rd=1.00:0.10 / mixed_ref=1 / me_range=32 / chroma_me=1 / trellis=2 / 8x8dct=1 / cqm=0 / deadzone=21,11 / fast_pskip=0 / chroma_qp_offset=-3 / threads=3 / lookahead_threads=1 / sliced_threads=0 / nr=0 / decimate=1 / interlaced=0 / bluray_compat=0 / constrained_intra=0 / bframes=10 / b_pyramid=2 / b_adapt=2 / b_bias=0 / direct=3 / weightb=1 / open_gop=0 / weightp=2 / keyint=240 / keyint_min=23 / scenecut=40 / intra_refresh=0 / rc_lookahead=60 / rc=2pass / mbtree=1 / bitrate=3499 / ratetol=1.0 / qcomp=0.60 / qpmin=10 / qpmax=51 / qpstep=4 / cplxblur=20.0 / qblur=0.5 / vbv_maxrate=62500 / vbv_bufsize=78125 / nal_hrd=none / filler=0 / ip_ratio=1.40 / aq=1:1.00
    Default : Да
    Forced : Нет
    Аудио #1
    Идентификатор : 2
    Формат : AC-3
    Формат/Информация : Audio Coding 3
    Расширение режима : CM (complete main)
    Параметр Endianness формата : Big
    Идентификатор кодека : A_AC3
    Продолжительность : 1 ч. 31 м.
    Вид битрейта : Постоянный
    Битрейт : 448 Кбит/сек
    Каналы : 6 каналов
    Расположение каналов : Front: L C R, Side: L R, LFE
    Частота : 48,0 КГц
    Битовая глубина : 16 бит
    Метод сжатия : С потерями
    Размер потока : 294 Мбайт (9%)
    Заголовок : дубляж
    Язык : Russian
    Default : Да
    Forced : Нет
    Аудио #2
    Идентификатор : 3
    Формат : AC-3
    Формат/Информация : Audio Coding 3
    Расширение режима : CM (complete main)
    Параметр Endianness формата : Big
    Идентификатор кодека : A_AC3
    Продолжительность : 1 ч. 31 м.
    Вид битрейта : Постоянный
    Битрейт : 448 Кбит/сек
    Каналы : 6 каналов
    Расположение каналов : Front: L C R, Side: L R, LFE
    Частота : 48,0 КГц
    Битовая глубина : 16 бит
    Метод сжатия : С потерями
    Размер потока : 294 Мбайт (9%)
    Заголовок : Гаврилов
    Язык : Russian
    Default : Нет
    Forced : Нет
    Аудио #3
    Идентификатор : 4
    Формат : AC-3
    Формат/Информация : Audio Coding 3
    Расширение режима : CM (complete main)
    Параметр Endianness формата : Big
    Идентификатор кодека : A_AC3
    Продолжительность : 1 ч. 31 м.
    Вид битрейта : Постоянный
    Битрейт : 448 Кбит/сек
    Каналы : 6 каналов
    Расположение каналов : Front: L C R, Side: L R, LFE
    Частота : 48,0 КГц
    Битовая глубина : 16 бит
    Метод сжатия : С потерями
    Размер потока : 294 Мбайт (9%)
    Заголовок : оригинал
    Язык : English
    Default : Нет
    Forced : Нет
    Текст #1
    Идентификатор : 5
    Формат : UTF-8
    Идентификатор кодека : S_TEXT/UTF8
    Идентификатор кодека/Информация : UTF-8 Plain Text
    Заголовок : полные
    Язык : Russian
    Default : Нет
    Forced : Нет
    Текст #2
    Идентификатор : 6
    Формат : UTF-8
    Идентификатор кодека : S_TEXT/UTF8
    Идентификатор кодека/Информация : UTF-8 Plain Text
    Заголовок : Воронин
    Язык : Russian
    Default : Нет
    Forced : Нет
    Текст #3
    Идентификатор : 7
    Формат : UTF-8
    Идентификатор кодека : S_TEXT/UTF8
    Идентификатор кодека/Информация : UTF-8 Plain Text
    Заголовок : только на экранные тексты
    Язык : Russian
    Default : Нет
    Forced : Нет
    Текст #4
    Идентификатор : 8
    Формат : UTF-8
    Идентификатор кодека : S_TEXT/UTF8
    Идентификатор кодека/Информация : UTF-8 Plain Text
    Заголовок : полные
    Язык : English
    Default : Нет
    Forced : Нет
    Текст #5
    Идентификатор : 9
    Формат : UTF-8
    Идентификатор кодека : S_TEXT/UTF8
    Идентификатор кодека/Информация : UTF-8 Plain Text
    Заголовок : для глухих и слабослышаших
    Язык : English
    Default : Нет
    Forced : Нет

    Скриншот c названием фильма

    Скриншоты

    лог

    ---[Information] [03.11.2015 0:08:38] avs [info]: 1152x480p 1:1 @ 24000/1001 fps (cfr)
    ---[Information] [03.11.2015 0:08:38] x264 [info]: using SAR=1/1
    ---[Information] [03.11.2015 0:08:38] x264 [info]: using cpu capabilities: MMX2 SSE2Fast LZCNT
    ---[Information] [03.11.2015 0:08:38] x264 [info]: profile High, level 4.1
    ---[Information] [03.11.2015 14:23:33] x264 [info]: frame I:1209 Avg QP:13.04 size:113907
    ---[Information] [03.11.2015 14:23:33] x264 [info]: frame P:31218 Avg QP:15.74 size: 40220
    ---[Information] [03.11.2015 14:23:33] x264 [info]: frame B:99678 Avg QP:18.63 size: 10197
    ---[Information] [03.11.2015 14:23:33] x264 [info]: consecutive B-frames: 2.6% 4.1% 7.0% 38.4% 13.6% 21.6% 4.7% 6.9% 0.6% 0.3% 0.2%
    ---[Information] [03.11.2015 14:23:33] x264 [info]: mb I I16..4: 13.5% 58.2% 28.3%
    ---[Information] [03.11.2015 14:23:33] x264 [info]: mb P I16..4: 0.7% 10.0% 2.1% P16..4: 31.7% 28.8% 21.6% 2.1% 1.0% skip: 2.0%
    ---[Information] [03.11.2015 14:23:33] x264 [info]: mb B I16..4: 0.0% 1.0% 0.3% B16..8: 38.6% 15.1% 4.9% direct: 5.6% skip:34.5% L0:41.4% L1:43.3% BI:15.3%
    ---[Information] [03.11.2015 14:23:33] x264 [info]: 8x8 transform intra:74.0% inter:49.7%
    ---[Information] [03.11.2015 14:23:33] x264 [info]: direct mvs spatial:97.6% temporal:2.4%
    ---[Information] [03.11.2015 14:23:33] x264 [info]: coded y,uvDC,uvAC intra: 93.9% 87.9% 73.4% inter: 28.5% 19.0% 7.7%
    ---[Information] [03.11.2015 14:23:33] x264 [info]: i16 v,h,dc,p: 13% 10% 22% 54%
    ---[Information] [03.11.2015 14:23:33] x264 [info]: i8 v,h,dc,ddl,ddr,vr,hd,vl,hu: 11% 12% 9% 8% 12% 12% 12% 11% 13%
    ---[Information] [03.11.2015 14:23:33] x264 [info]: i4 v,h,dc,ddl,ddr,vr,hd,vl,hu: 10% 11% 4% 8% 14% 13% 13% 11% 13%
    ---[Information] [03.11.2015 14:23:33] x264 [info]: i8c dc,h,v,p: 46% 23% 16% 15%
    ---[Information] [03.11.2015 14:23:33] x264 [info]: Weighted P-Frames: Y:2.5% UV:1.2%
    ---[Information] [03.11.2015 14:23:33] x264 [info]: ref P L0: 47.6% 10.6% 16.6% 5.6% 4.9% 3.2% 3.0% 1.5% 1.5% 1.1% 1.1% 0.9% 0.9% 0.7% 0.8% 0.1%
    ---[Information] [03.11.2015 14:23:33] x264 [info]: ref B L0: 77.1% 10.8% 4.1% 2.1% 1.4% 1.2% 0.9% 0.6% 0.5% 0.4% 0.3% 0.3% 0.2% 0.1%
    ---[Information] [03.11.2015 14:23:33] x264 [info]: ref B L1: 94.0% 6.0%
    ---[Information] [03.11.2015 14:23:33] x264 [info]: kb/s:3498.69
    ---[Information] [03.11.2015 14:23:33] encoded 132105 frames, 2.58 fps, 3498.69 kb/s
    Скачать .torrent

    Скачать торрент-файл бесплатно и на максимальной скорости!

    Как скачивать? · Что такое торрент? · Рейтинг и ограничения

    !ВНИМАНИЕ!
    Сайт не распространяет и не хранит электронные версии произведений, а занимается лишь лишь предоставлением доступа к создаваемому пользователями каталогу ссылок на торрент-файлы, которые содержат только списки хеш-сумм, убедительная просьба с жалобами обращаться напрямую к пользователю. Файлы для обмена на трекере предоставлены пользователями сайта, и администрация не несёт ответственности за их содержание. Просьба не заливать файлы, защищенные авторскими правами, а также файлы нелегального содержания!


    _________________
    [Профиль] [ЛС]
    Показать сообщения:    
    Ответить на тему

    Текущее время: Сегодня, в 07:54

    Часовой пояс: GMT + 2



    Вы не можете начинать темы
    Вы не можете отвечать на сообщения
    Вы не можете редактировать свои сообщения
    Вы не можете удалять свои сообщения
    Вы не можете голосовать в опросах
    Вы не можете прикреплять файлы к сообщениям
    Вы не можете скачивать файлы