BitTorrentTracker PerecTracker.org
BitTorrentTracker PerecTracker.org
    
Регистрация  ·  Вход
 
 · 
Забыли пароль?

  • Спящая красавица / Bella addormentata (Марко Беллоккьо / Marco Bellocchio) [2012, Италия, Франция, драма, HDRip] VO (Морозов) + Sub Rus, Eng + Original Ita

    Ответить на тему
     
    Автор Сообщение

    Light

    Создавать темы 08-Дек-2015 23:05

           

    [Цитировать]

    Спящая красавица / Bella addormentata
    Страна: Италия, Франция
    Жанр: драма
    Год выпуска: 2012
    Продолжительность: 01:55:02
    Перевод: Одноголосый закадровый - Павел Морозов
    Cубтитры: русские (А. Стефанова (Ketzal), М. Фёдоров), английские
    Оригинальная аудиодорожка: итальянский

    Режиссер: Марко Беллоккьо / Marco Bellocchio
    В ролях: Тони Сервилло, Изабель Юппер, Майя Санса, Роберто Херлитцка, Альба Рорвахер, Пьер Джорджо Беллоккьо, Микеле Риондино, Фабрицио Фалько
    Описание: Фильм основан на реальных событиях. После дорожной аварии Элуана Энгларо 17 лет провела в клинике с диагнозом "вегетативное состояние". Отец Элуаны долгие годы добивался разрешения прекратить искусственно поддерживать жизнь дочери, и в итоге суд признал за ним это право. Вердикт суда вызвал в итальянском обществе раскол вплоть до самого верха, даже премьер-министр и президент встали по разные стороны баррикад. Саму Элуану мы не увидим: о драме в семье Энгларо вещают телеэкраны, на фоне которых разворачиваются четыре схожих сюжета, так или иначе вплетенных в эту историю. И хотя эти сюжеты – плод воображения режиссера, сомнений в их реальности нет, как нет и простых ответов на вопросы. Этот фильм не об эвтаназии, он о свободе выбора, о любви и человеческом достоинстве, о милосердии и вере.
    Качество видео: HDRip [Dormant.Beauty.2012.Blu.Ray.720p]
    Формат видео: AVI
    Видео: 720x304 (2.37:1), 23.976 fps, XviD build 73 ~1611 kbps avg, 0.31 bit/pixel
    Аудио: 48 kHz, AC3 Dolby Digital, 2/0 (L,R) ch, ~192 kbps - одноголосый
    Аудио: 48 kHz, AC3 Dolby Digital, 3/2 (L,C,R,l,r) + LFE ch, ~448 kbps - оригинал (отдельным файлом)

    MediaInfo

    Общее
    Полное имя : H:\Bella.addormentata.2012.hdrip_[1.46]_[teko]\Bella.addormentata.2012.hdrip_[1.46].avi
    Формат : AVI
    Формат/Информация : Audio Video Interleave
    Размер файла : 1,46 Гбайт
    Продолжительность : 1 ч. 55 м.
    Общий поток : 1813 Кбит/сек
    Программа кодирования : VirtualDubMod 1.5.10.3 | www.virtualdub-fr.org || (build 2550/release)
    Библиотека кодирования : VirtualDubMod build 2550/release
    Видео
    Идентификатор : 0
    Формат : MPEG-4 Visual
    Профиль формата : Advanced Simple@L5
    Параметр BVOP формата : 1
    Параметр QPel формата : Нет
    Параметр GMC формата : Без точки перехода
    Параметр матрицы формата : Выборочная
    Идентификатор кодека : XVID
    Идентификатор кодека/Подсказка : XviD
    Продолжительность : 1 ч. 55 м.
    Битрейт : 1612 Кбит/сек
    Ширина : 720 пикселей
    Высота : 304 пикселя
    Соотношение сторон : 2,35:1
    Частота кадров : 23,976 кадра/сек
    Цветовое пространство : YUV
    Субдискретизация насыщенности : 4:2:0
    Битовая глубина : 8 бит
    Тип развёртки : Прогрессивная
    Метод сжатия : С потерями
    Бит/(Пиксели*Кадры) : 0.307
    Размер потока : 1,30 Гбайт (89%)
    Библиотека кодирования : XviD 73
    Аудио
    Идентификатор : 1
    Формат : AC-3
    Формат/Информация : Audio Coding 3
    Расширение режима : CM (complete main)
    Параметр Endianness формата : Big
    Идентификатор кодека : 2000
    Продолжительность : 1 ч. 55 м.
    Вид битрейта : Постоянный
    Битрейт : 192 Кбит/сек
    Каналы : 2 канала
    Расположение каналов : Front: L R
    Частота : 48,0 КГц
    Битовая глубина : 16 бит
    Метод сжатия : С потерями
    Размер потока : 158 Мбайт (11%)
    Выравнивание : Разделение по промежуткам
    Продолжительность промежутка : 42 мс. (1,00 видеокадр)
    Время предзагрузки промежутка : 500 мс.

    Скриншоты

    Релиз группы:

    -
    -
    Скачать .torrent

    Скачать торрент-файл бесплатно и на максимальной скорости!

    Как скачивать? · Что такое торрент? · Рейтинг и ограничения

    !ВНИМАНИЕ!
    Сайт не распространяет и не хранит электронные версии произведений, а занимается лишь лишь предоставлением доступа к создаваемому пользователями каталогу ссылок на торрент-файлы, которые содержат только списки хеш-сумм, убедительная просьба с жалобами обращаться напрямую к пользователю. Файлы для обмена на трекере предоставлены пользователями сайта, и администрация не несёт ответственности за их содержание. Просьба не заливать файлы, защищенные авторскими правами, а также файлы нелегального содержания!


    _________________
    [Профиль] [ЛС]
    Показать сообщения:    
    Ответить на тему

    Текущее время: Сегодня, в 22:16

    Часовой пояс: GMT + 2



    Вы не можете начинать темы
    Вы не можете отвечать на сообщения
    Вы не можете редактировать свои сообщения
    Вы не можете удалять свои сообщения
    Вы не можете голосовать в опросах
    Вы не можете прикреплять файлы к сообщениям
    Вы не можете скачивать файлы