BitTorrentTracker PerecTracker.org
BitTorrentTracker PerecTracker.org
    
Регистрация  ·  Вход
 
 · 
Забыли пароль?

  • Алжирский залив / La baie d\'Alger (Мерзак Аллуаш / Merzak Allouache) [2011, Франция, драма, комедия, экранизация, DVB -> DVD] Original (Fre) + Sub (Rus, Eng, Fre, Deu)

    Ответить на тему
     
    Автор Сообщение

    Light

    Создавать темы 08-Дек-2015 23:05

           

    [Цитировать]

    Алжирский залив
    La baie d'Alger-Страна: Франция
    Жанр: драма, комедия, экранизация
    Год выпуска: 2011
    Продолжительность: 01:30:12Перевод: Субтитры (перевод М.Лабори, Éclair Group)
    Cубтитры: русские, английские, французские, немецкие, нидерландские, румынские
    Оригинальная аудиодорожка: французский
    Режиссер: Мерзак Аллуаш / Merzak Allouache
    В ролях: Солаль Форте / Solal Forté (Louis 15 ans), Жак Списсер / Jacques Spiesser (Louis), Энтони Сониго / Anthony Sonigo (Solal), Марго Шателье / Margaux Châtelier (Michelle), Катрин Жакоб / Catherine Jacob (Zoé), Халид Беркуз / Khalid Berkouz (Omar), Микаэль Абитбуль / Michaël Abiteboul (Marco), Мишель Моретти / Michèle Moretti (Suzanne), Лиза Масер / Lisa Masker (Zoubida 18 ans), Габриель Лазюр / Gabrielle Lazure (Anne-Marie), Жюльен Тестар / Julien Testard (Albert Camus), Жан Бенгиги / Jean Benguigui (Steiger)
    Описание: По одноименному роману Луи Гарделя / Louis Gardel (2007).
    "Свершилось! Алжир, всё кончено!" – голос рассказчика повествует историю 15-летнего подростка Луи, живущего в стране с бабушкой после отъезда его родителей на континент. Идет 1955 год. До Алжира докатывается рокот освободительной борьбы Индокитая и Туниса. Но это не мешает Луи жить полноценной жизнью и следовать наклонностям своего возраста. Представитель "золотой молодежи", обучающийся в престижном французском лицее, он полностью огражден от суеты и проблем окружающего мира. С одноклассником Солалем он обсуждает все: от политики до девочек, - и с увлечением слушает рассказы о литературе учителя Марко. А сколько удовольствий дарит купание под ласковым солнцем в бурунах волн Средиземного моря! И, конечно же, первый чувственный опыт в объятиях красивой девушки Мишель… Но беззаботное детство и счастливое юношество разом оказываются в прошлом с началом антиколониальной войны за независимость Алжира…
    -Французский режиссер алжирского происхождения Мерзак Аллуаш, трижды лауреат Каннского кинофестиваля (1987, 1994, 2012), лауреат Берлинского МКФ (1979), чей дебютный фильм "Застенчивый Омар" получил Серебряный приз Московского МКФ (1977), знаком российской публике искрометной комедией "Шу-шу" (2003) и участием в проекте мэтров кинематографа "Люмьер и компания" (1995).-Доп. информация: Hot Bird (13.0°E) TV5MONDE Europe DVB-S
    Участник Luchon Film Festival 2012; Alès Film Festival 2012.

    Качество видео: DVB
    Формат видео: DVD Video
    Видео: MPEG Video 2, 720x576@1024x576 (16:9), 25 fps, ~3221 kbps avg, 0.311 bit/pixel
    Аудио: MPEG Audio 2, 2 ch, 48 kHz, 192.00 kbps - французский
    Формат субтитров: prerendered (IDX+SUB)

    MediaInfo

    Title: [apreder]La_baie_d'Alger(2011)DVBSize: 2.19 Gb ( 2 299 004,00 KBytes ) - DVD-5Enabled regions: 1, 2, 3, 4, 5, 6, 7, 8
    VTS_01 : Play Length: 01:30:12 Video: PAL 16:9 (720x576) VBR, Auto Letterboxed Audio: Francais (MPEG1, 2 ch) Subtitles: Russian English Francais Deutsch Nederlands Romanian
    ОбщееПолное имя : F:\My Torrents 3\[apreder]La_baie_d'Alger(2011)DVB\VIDEO_TS\VTS_01_1.VOBФормат : MPEG-PSРазмер файла : 1024 МбайтПродолжительность : 41 м.Режим общего битрейта : ПеременныйОбщий поток : 3482 Кбит/сек
    ВидеоИдентификатор : 224 (0xE0)Формат : MPEG VideoВерсия формата : Version 2Профиль формата : Main@MainПараметр BVOP формата : ДаПараметр матрицы формата : ВыборочнаяПараметр GOP формата : M=4, N=12Format_Settings_PictureStructure : FrameПродолжительность : 41 м.Вид битрейта : ПеременныйБитрейт : 3221 Кбит/секШирина : 720 пикселейВысота : 576 пикселейСоотношение сторон : 16:9Частота кадров : 25,000 кадров/секСтандарт вещания : PALЦветовое пространство : YUVСубдискретизация насыщенности : 4:2:0Битовая глубина : 8 битТип развёртки : ЧересстрочнаяПорядок развёртки : Верхнее поле первоеМетод сжатия : С потерямиБит/(Пиксели*Кадры) : 0.311Временной код первого кадра : 00:00:00:00Оригинал временного кода : Group of pictures headerРазмер потока : 947 Мбайт (92%)
    АудиоИдентификатор : 192 (0xC0)Формат : MPEG AudioВерсия формата : Version 1Профиль формата : Layer 2Режим : Joint stereoРасширение режима : Intensity Stereo + MS StereoПродолжительность : 41 м.Вид битрейта : ПостоянныйБитрейт : 192 Кбит/секКаналы : 2 каналаЧастота : 48,0 КГцМетод сжатия : С потерямиРазмер потока : 56,4 Мбайт (6%)
    Текст #1Идентификатор : 189 (0xBD)-32 (0x20)Формат : RLEФормат/Информация : Run-length encodingРежим смешивания : DVD-VideoПродолжительность : 41 м.Задержка видео : 2 с. 640 мс.
    Текст #2Идентификатор : 189 (0xBD)-33 (0x21)Формат : RLEФормат/Информация : Run-length encodingРежим смешивания : DVD-VideoПродолжительность : 41 м.Задержка видео : 2 с. 520 мс.
    Текст #3Идентификатор : 189 (0xBD)-35 (0x23)Формат : RLEФормат/Информация : Run-length encodingРежим смешивания : DVD-VideoПродолжительность : 41 м.Задержка видео : 2 с. 520 мс.
    Текст #4Идентификатор : 189 (0xBD)-36 (0x24)Формат : RLEФормат/Информация : Run-length encodingРежим смешивания : DVD-VideoПродолжительность : 41 м.Задержка видео : 2 с. 520 мс.
    Текст #5Идентификатор : 189 (0xBD)-37 (0x25)Формат : RLEФормат/Информация : Run-length encodingРежим смешивания : DVD-VideoПродолжительность : 41 м.Задержка видео : 2 с. 720 мс.
    Текст #6Идентификатор : 189 (0xBD)-34 (0x22)Формат : RLEФормат/Информация : Run-length encodingРежим смешивания : DVD-Video

    Скриншот c названием фильма

    Скриншоты

    Резервные скриншоты


    -[729]
    Скачать .torrent

    Скачать торрент-файл бесплатно и на максимальной скорости!

    Как скачивать? · Что такое торрент? · Рейтинг и ограничения

    !ВНИМАНИЕ!
    Сайт не распространяет и не хранит электронные версии произведений, а занимается лишь лишь предоставлением доступа к создаваемому пользователями каталогу ссылок на торрент-файлы, которые содержат только списки хеш-сумм, убедительная просьба с жалобами обращаться напрямую к пользователю. Файлы для обмена на трекере предоставлены пользователями сайта, и администрация не несёт ответственности за их содержание. Просьба не заливать файлы, защищенные авторскими правами, а также файлы нелегального содержания!


    _________________
    [Профиль] [ЛС]
    Показать сообщения:    
    Ответить на тему

    Текущее время: Сегодня, в 20:48

    Часовой пояс: GMT + 2



    Вы не можете начинать темы
    Вы не можете отвечать на сообщения
    Вы не можете редактировать свои сообщения
    Вы не можете удалять свои сообщения
    Вы не можете голосовать в опросах
    Вы не можете прикреплять файлы к сообщениям
    Вы не можете скачивать файлы