BitTorrentTracker PerecTracker.org
BitTorrentTracker PerecTracker.org
    
Регистрация  ·  Вход
 
 · 
Забыли пароль?

  • Женщина за стеной / Die Frau hinter der Wand (Гжегорж Мускала / Grzegorz Muskala) [2013, Германия, триллер, BDRip-AVC] DVO + Original Ger

    Ответить на тему
     
    Автор Сообщение

    Light

    Создавать темы 08-Дек-2015 23:05

           

    [Цитировать]

    Женщина за стеной / Die Frau hinter der Wand
    Страна: Германия
    Жанр: триллер
    Год выпуска: 2013
    Продолжительность: 01:35:04
    Перевод: Любительский (двухголосый закадровый)
    Cубтитры: нет
    Оригинальная аудиодорожка: немецкий
    Навигация по главам: есть
    Режиссер: Гжегорж Мускала / Grzegorz Muskala
    В ролях: Винсент Редецки, Катарина Хайер, Флориан Панцнер, Нильс Борман, Николай Кински, Рональд Ничке, Томоко Окада, Роберт Штадлобер, Лешек Сталевски, Петра Цизер
    О фильме: Студент снимает захудалую комнатушку в кондаминиуме, который принадлежит роковой блондинке-скульптору, живущей у него за стеной... После первого секса с ней, юноша беззаветно влюбляется в странную красотку и с ним начинают происходить безумные и таинственные вещи...
    Доп. информация:
    Перевод фильма: МЕГАПЫХАРЬ
    Звук: Гуннлауг
    Озвучка: den904 & DeadSno

    Сэмпл: http://sendfile.su/1172065
    Качество видео: BDRip-AVC [Исходник: BDRemux 1080p]
    Формат видео: MKV
    Видео: x264, 1024x552 (1.85:1), 24 fps, ~1800 kbps avg, 0.13 bit/pixel
    Аудио #1: 48 kHz, AC3 Dolby Digital, 2/0 (L,R) ch, ~192 kbps avg - русский
    Аудио #2: 48 kHz, AC3 Dolby Digital, 2/0 (L,R) ch, ~192 kbps avg - оригинал

    MediaInfo

    Общее
    Уникальный идентификатор : 182576398289843079815686734304956072591 (0x895AEF6D3B0DF4038221708A6BB7428F)
    Полное имя : H:\Фильмы\Женщина за стеной\Die.Frau.hinter.der.Wand.2013.BDRip-AVC.mkv
    Формат : Matroska
    Версия формата : Version 2
    Размер файла : 1,45 Гбайт
    Продолжительность : 1 ч. 35 м.
    Общий поток : 2185 Кбит/сек
    Название фильма : Die Frau hinter der Wand (Grzegorz Muskala, 2013) BDRip-AVC
    Дата кодирования : UTC 2015-10-22 13:36:59
    Программа кодирования : mkvmerge v7.6.0 ('Garden of Dreams') 32bit built on Feb 11 2015 00:18:47
    Библиотека кодирования : libebml v1.3.1 + libmatroska v1.4.2
    Видео
    Идентификатор : 1
    Формат : AVC
    Формат/Информация : Advanced Video Codec
    Профиль формата : High@L4.1
    Параметр CABAC формата : Да
    Параметр ReFrames формата : 12 кадров
    Идентификатор кодека : V_MPEG4/ISO/AVC
    Продолжительность : 1 ч. 35 м.
    Битрейт : 1800 Кбит/сек
    Ширина : 1024 пикселя
    Высота : 552 пикселя
    Соотношение сторон : 1,85:1
    Режим частоты кадров : Постоянный
    Частота кадров : 24,000 кадра/сек
    Цветовое пространство : YUV
    Субдискретизация насыщенности : 4:2:0
    Битовая глубина : 8 бит
    Тип развёртки : Прогрессивная
    Бит/(Пиксели*Кадры) : 0.133
    Размер потока : 1,17 Гбайт (80%)
    Библиотека кодирования : x264 core 148 r2579 73ae2d1
    Настройки программы : cabac=1 / ref=12 / deblock=1:-3:-3 / analyse=0x3:0x133 / me=umh / subme=10 / psy=1 / psy_rd=1.00:0.15 / mixed_ref=1 / me_range=48 / chroma_me=1 / trellis=2 / 8x8dct=1 / cqm=0 / deadzone=21,11 / fast_pskip=0 / chroma_qp_offset=-3 / threads=12 / lookahead_threads=3 / sliced_threads=0 / nr=0 / decimate=0 / interlaced=0 / bluray_compat=0 / constrained_intra=0 / bframes=10 / b_pyramid=2 / b_adapt=2 / b_bias=0 / direct=3 / weightb=1 / open_gop=0 / weightp=2 / keyint=240 / keyint_min=23 / scenecut=40 / intra_refresh=0 / rc=2pass / mbtree=0 / bitrate=1800 / ratetol=1.0 / qcomp=0.60 / qpmin=10 / qpmax=51 / qpstep=4 / cplxblur=20.0 / qblur=0.5 / ip_ratio=1.35 / pb_ratio=1.25 / aq=2:0.80
    Язык : German
    Default : Да
    Forced : Нет
    Коэффициенты матрицы : BT.709
    Аудио #1
    Идентификатор : 2
    Формат : AC-3
    Формат/Информация : Audio Coding 3
    Расширение режима : CM (complete main)
    Параметр Endianness формата : Big
    Идентификатор кодека : A_AC3
    Продолжительность : 1 ч. 35 м.
    Вид битрейта : Постоянный
    Битрейт : 192 Кбит/сек
    Каналы : 2 канала
    Расположение каналов : Front: L R
    Частота : 48,0 КГц
    Метод сжатия : С потерями
    Размер потока : 131 Мбайт (9%)
    Заголовок : Любительский двухголосый 2D (den904 & DeadSno)
    Язык : Russian
    Default : Да
    Forced : Нет
    Аудио #2
    Идентификатор : 3
    Формат : AC-3
    Формат/Информация : Audio Coding 3
    Расширение режима : CM (complete main)
    Параметр Endianness формата : Big
    Идентификатор кодека : A_AC3
    Продолжительность : 1 ч. 35 м.
    Вид битрейта : Постоянный
    Битрейт : 192 Кбит/сек
    Каналы : 2 канала
    Расположение каналов : Front: L R
    Частота : 48,0 КГц
    Метод сжатия : С потерями
    Размер потока : 131 Мбайт (9%)
    Заголовок : Original
    Язык : German
    Default : Нет
    Forced : Нет
    Меню
    00:00:00.000 : en:Chapter 1
    00:10:00.000 : en:Chapter 2
    00:20:00.000 : en:Chapter 3
    00:30:00.000 : en:Chapter 4
    00:40:00.000 : en:Chapter 5
    00:50:00.000 : en:Chapter 6
    01:00:00.000 : en:Chapter 7
    01:10:00.000 : en:Chapter 8
    01:20:00.000 : en:Chapter 9

    x264

    x264 [info]: frame I:1008 Avg QP:15.18 size: 71477
    x264 [info]: frame P:26120 Avg QP:17.66 size: 22488
    x264 [info]: frame B:109782 Avg QP:19.08 size: 5680
    x264 [info]: consecutive B-frames: 1.3% 1.3% 5.0% 12.3% 15.3% 48.1% 6.8% 2.2% 2.6% 1.8% 3.2%
    x264 [info]: mb I I16..4: 9.2% 75.4% 15.3%
    x264 [info]: mb P I16..4: 1.1% 9.0% 1.0% P16..4: 42.6% 22.2% 15.9% 0.5% 0.2% skip: 7.6%
    x264 [info]: mb B I16..4: 0.0% 0.5% 0.1% B16..8: 35.7% 9.1% 2.1% direct: 4.0% skip:48.4% L0:45.2% L1:42.1% BI:12.7%
    x264 [info]: 8x8 transform intra:80.1% inter:62.5%
    x264 [info]: direct mvs spatial:98.1% temporal:1.9%
    x264 [info]: coded y,uvDC,uvAC intra: 82.7% 84.8% 70.9% inter: 16.7% 21.6% 12.6%
    x264 [info]: i16 v,h,dc,p: 36% 9% 11% 44%
    x264 [info]: i8 v,h,dc,ddl,ddr,vr,hd,vl,hu: 17% 9% 9% 8% 11% 12% 11% 12% 11%
    x264 [info]: i4 v,h,dc,ddl,ddr,vr,hd,vl,hu: 15% 7% 4% 9% 15% 15% 13% 11% 11%
    x264 [info]: i8c dc,h,v,p: 48% 16% 18% 17%
    x264 [info]: Weighted P-Frames: Y:6.1% UV:3.7%
    x264 [info]: ref P L0: 44.8% 9.6% 16.3% 7.8% 5.8% 4.4% 3.6% 2.2% 1.8% 1.5% 1.2% 1.0% 0.1% 0.0%
    x264 [info]: ref B L0: 65.3% 15.7% 6.9% 3.7% 2.6% 2.0% 1.6% 0.9% 0.7% 0.4% 0.2%
    x264 [info]: ref B L1: 91.4% 8.6%

    Скриншоты



    Скачать .torrent

    Скачать торрент-файл бесплатно и на максимальной скорости!

    Как скачивать? · Что такое торрент? · Рейтинг и ограничения

    !ВНИМАНИЕ!
    Сайт не распространяет и не хранит электронные версии произведений, а занимается лишь лишь предоставлением доступа к создаваемому пользователями каталогу ссылок на торрент-файлы, которые содержат только списки хеш-сумм, убедительная просьба с жалобами обращаться напрямую к пользователю. Файлы для обмена на трекере предоставлены пользователями сайта, и администрация не несёт ответственности за их содержание. Просьба не заливать файлы, защищенные авторскими правами, а также файлы нелегального содержания!


    _________________
    [Профиль] [ЛС]
    Показать сообщения:    
    Ответить на тему

    Текущее время: Сегодня, в 14:49

    Часовой пояс: GMT + 2



    Вы не можете начинать темы
    Вы не можете отвечать на сообщения
    Вы не можете редактировать свои сообщения
    Вы не можете удалять свои сообщения
    Вы не можете голосовать в опросах
    Вы не можете прикреплять файлы к сообщениям
    Вы не можете скачивать файлы