BitTorrentTracker PerecTracker.org
BitTorrentTracker PerecTracker.org
    
Регистрация  ·  Вход
 
 · 
Забыли пароль?

  • Лучшее предложение / The Best Offer (Джузеппе Торнаторе / Giuseppe Tornatore) [2013, триллер, драма, BDRip 720p] Dub (звук с TS) + Original (Eng)

    Ответить на тему
     
    Автор Сообщение

    Columb

    Создавать темы 02-Авг-2013 17:21

           

    [Цитировать]

    Лучшее предложение / The Best Offer-Страна: Италия, США
    Жанр: триллер, драма
    Продолжительность: 02:10:58
    Год выпуска: 2013
    Перевод: Профессиональный (дублированный) [Звук с TS]
    Оригинальная аудиодорожка: Английский
    Субтитры: нет-Режиссёр: Джузеппе Торнаторе / Giuseppe Tornatore
    В ролях: Джеффри Раш, Джим Стёрджесс, Сильвия Хукс, Дональд Сазерленд, Филип Джексон, Дермот Краули, Кируна Стамелл, Лия Кебеде, Катерина Каподилиста, Ген Сето-Описание: Вергилий Олдман — управляющий директор ведущего аукционного дома. Время от времени со своим партнёром Билли на глазах у всего мира он проворачивает хитроумные афёры, ловко манипулируя и вводя в заблуждение как продавцов, так и покупателей. В секретном зале своей виллы он собрал сотни бесценных картин из разных эпох.
    Однажды таинственная женщина, скрывающая свою личность, просит его продать антиквариат ее семьи. Среди многочисленных произведений искусства раз за разом Олдман обнаруживает частицы давно утерянного механизма. В своё время поговаривали, что для того, чтобы его оживить создатели прибегали к помощи высших сил… Складывая как пазл найденные детали, вместе со своим гениальным другом Робертом, они пытаются разгадать этот секрет. Но Олдман заинтересован не только предметами старины…- -SOURCE: La Migliore Offerta 2013 1080p ITA Blu-ray AVC DTS-HD MA 5.1-CtrlHD
    Качество: BDRip 720p
    Формат: MKV
    Видео: 1280x538 (2,40:1), 24 fps, x264 MPEG-4 ~4000 kbps avg, 0.242 bit/pixel
    Аудио 1: Russian 48 КHz, MP3, 2 ch, 192 kb/s, [Звук с TS]
    Аудио 2: English 48 kHz, AC3 Dolby Digital, 3/2 (L,C,R,l,r) + LFE ch, ~640 kbps
    Дополнительная информация: Сохранены оригинальные чаптеры как на Blu-Ray

    MediaInfo

    Общее
    Уникальный идентификатор : 194621054302793443985749901015751940300 (0x926AA6D1286CBE5298998264643D58CC)
    Полное имя : E:\Фильмы\The_Best_Offer_720p.mkv
    Формат : Matroska
    Версия формата : Version 2
    Размер файла : 4,42 Гбайт
    Продолжительность : 2 ч. 10 м.
    Общий поток : 4834 Кбит/сек
    Дата кодирования : UTC 2013-08-01 18:02:43
    Программа кодирования : mkvmerge v5.0.1 ('Es ist Sommer') built on Oct 24 2011 19:45:06
    Библиотека кодирования : libebml v1.2.2 + libmatroska v1.3.0
    Видео
    Идентификатор : 1
    Формат : AVC
    Формат/Информация : Advanced Video Codec
    Профиль формата : High@L4.1
    Параметр CABAC формата : Да
    Параметр ReFrames формата : 12 кадров
    Идентификатор кодека : V_MPEG4/ISO/AVC
    Продолжительность : 2 ч. 10 м.
    Битрейт : 4000 Кбит/сек
    Ширина : 1280 пикселей
    Высота : 538 пикселей
    Соотношение сторон : 2,40:1
    Частота кадров : 24,000 кадра/сек
    Цветовое пространство : YUV
    Субдискретизация насыщенности : 4:2:0
    Битовая глубина : 8 бит
    Тип развёртки : Прогрессивная
    Бит/(Пиксели*Кадры) : 0.242
    Размер потока : 3,57 Гбайт (81%)
    Заголовок : Лучшее предложение (2013)
    Библиотека кодирования : x264 core 133 r2334kMod a3ac64b
    Настройки программы : cabac=1 / ref=12 / deblock=1:-3:-3 / analyse=0x3:0x133 / me=umh / subme=11 / psy=1 / fade_compensate=0.00 / psy_rd=1.10:0.10 / mixed_ref=1 / me_range=64 / chroma_me=1 / trellis=2 / 8x8dct=1 / cqm=0 / deadzone=21,11 / fast_pskip=0 / chroma_qp_offset=-3 / threads=12 / lookahead_threads=2 / sliced_threads=0 / nr=0 / decimate=0 / interlaced=0 / bluray_compat=0 / constrained_intra=0 / bframes=9 / b_pyramid=2 / b_adapt=2 / b_bias=0 / direct=3 / weightb=1 / open_gop=0 / weightp=2 / keyint=250 / keyint_min=24 / scenecut=40 / intra_refresh=0 / rc_lookahead=40 / rc=2pass / mbtree=0 / bitrate=4000 / ratetol=1.0 / qcomp=0.80 / qpmin=0 / qpmax=69 / qpstep=4 / cplxblur=20.0 / qblur=0.5 / vbv_maxrate=50000 / vbv_bufsize=62500 / nal_hrd=none / ip_ratio=1.30 / pb_ratio=1.20 / aq=1:0.70
    Язык : Russian
    Default : Да
    Forced : Нет
    Основные цвета : BT.709-5, BT.1361, IEC 61966-2-4, SMPTE RP177
    Характеристики трансфера : BT.709-5, BT.1361
    Коэффициенты матрицы : BT.709-5, BT.1361, IEC 61966-2-4 709, SMPTE RP177
    Аудио #1
    Идентификатор : 2
    Формат : MPEG Audio
    Версия формата : Version 1
    Профиль формата : Layer 3
    Режим : Joint stereo
    Идентификатор кодека : A_MPEG/L3
    Идентификатор кодека/Подсказка : MP3
    Продолжительность : 2 ч. 10 м.
    Вид битрейта : Постоянный
    Битрейт : 192 Кбит/сек
    Каналы : 2 канала
    Частота : 48,0 КГц
    Метод сжатия : С потерями
    Размер потока : 180 Мбайт (4%)
    Заголовок : Rus (TS)
    Язык : Russian
    Default : Да
    Forced : Да
    Аудио #2
    Идентификатор : 3
    Формат : AC-3
    Формат/Информация : Audio Coding 3
    Расширение режима : CM (complete main)
    Идентификатор кодека : A_AC3
    Продолжительность : 2 ч. 10 м.
    Вид битрейта : Постоянный
    Битрейт : 640 Кбит/сек
    Каналы : 6 каналов
    Расположение каналов : Front: L C R, Side: L R, LFE
    Частота : 48,0 КГц
    Битовая глубина : 16 бит
    Метод сжатия : С потерями
    Размер потока : 600 Мбайт (13%)
    Заголовок : Eng
    Язык : English
    Default : Нет
    Forced : Нет
    Меню
    00:00:00.000 : en:00:00:00.000
    00:08:59.875 : en:00:08:59.875
    00:16:33.542 : en:00:16:33.542
    00:32:53.167 : en:00:32:53.167
    00:48:00.500 : en:00:48:00.500
    00:53:51.500 : en:00:53:51.500
    01:01:55.000 : en:01:01:55.000
    01:11:45.833 : en:01:11:45.833
    01:24:45.333 : en:01:24:45.333
    01:34:51.708 : en:01:34:51.708
    01:40:27.000 : en:01:40:27.000
    01:57:58.667 : en:01:57:58.667

    Скриншот c названием фильма

    Скриншоты

    Скачать .torrent

    Скачать торрент-файл бесплатно и на максимальной скорости!

    Как скачивать? · Что такое торрент? · Рейтинг и ограничения

    !ВНИМАНИЕ!
    Сайт не распространяет и не хранит электронные версии произведений, а занимается лишь лишь предоставлением доступа к создаваемому пользователями каталогу ссылок на торрент-файлы, которые содержат только списки хеш-сумм, убедительная просьба с жалобами обращаться напрямую к пользователю. Файлы для обмена на трекере предоставлены пользователями сайта, и администрация не несёт ответственности за их содержание. Просьба не заливать файлы, защищенные авторскими правами, а также файлы нелегального содержания!

    [Профиль] [ЛС]
    Показать сообщения:    
    Ответить на тему

    Текущее время: Сегодня, в 03:20

    Часовой пояс: GMT + 2



    Вы не можете начинать темы
    Вы не можете отвечать на сообщения
    Вы не можете редактировать свои сообщения
    Вы не можете удалять свои сообщения
    Вы не можете голосовать в опросах
    Вы не можете прикреплять файлы к сообщениям
    Вы не можете скачивать файлы