Register  ·  Log in
Forgot password?

  • Взрослые новички / Adult Beginners (Росс Кац / Ross Katz) [2014, США, драма, комедия, HDRip] DUB [iTunes]

    Reply to topic
    Author Message


    Post 09-Dec-2015 00:05



    Взрослые новички / Adult Beginners
    -Год выпуска: 2014
    Страна: США
    Жанр: драма, комедия
    Продолжительность: 01:32:04
    Перевод: Профессиональный (полное дублирование) (iTunes)-Режиссер: Росс Кац / Ross Katz-В ролях: Роуз Бирн, Ник Кролл, Бобби Каннавале, Джоэл МакХэйл, Калеб и Мэттью Пэддок, Паула Гарсес, Кэйтлин Фицджералд, Джейн Краковски, Майк Бирбиглия, Грег Джонсон, Бобби Мойнахан, Сет Барриш-Описание:
    Молодой самовлюблённый предприниматель терпит крах накануне запуска своей компании. Переживать возникший на месте его жизни хаос он едет с родного Манхэттена к беременной сестре, с которой давно не поддерживал отношения, её мужу и 3-летнему племяннику, живущим в пригороде - и становится их няней.--Качество: HDRip
    Формат: AVI
    Видео: XviD, 720x384 (1.875), 1731 kbps, 23,976 fps, 0,261 bpp
    Аудио: AC3 / 2.0 / 48 kHz / 384 kbps / 16 bit-Сэмпл:


    Complete name : D:\Торенты\A.Beg1nners.2015.D.HDRip.1400Mb.avi
    Format : AVI
    Format/Info : Audio Video Interleave
    File size : 1.37 GiB
    Duration : 1h 32mn
    Overall bit rate : 2 125 Kbps
    Writing application : VirtualDubMod (build 2540/release)
    Writing library : VirtualDubMod build 2540/release
    ID : 0
    Format : MPEG-4 Visual
    Format profile : Advanced Simple@L5
    Format settings, BVOP : 2
    Format settings, QPel : No
    Format settings, GMC : No warppoints
    Format settings, Matrix : Default (MPEG)
    Codec ID : XVID
    Codec ID/Hint : XviD
    Duration : 1h 32mn
    Bit rate : 1 732 Kbps
    Width : 720 pixels
    Height : 384 pixels
    Display aspect ratio : 1.875
    Frame rate : 23.976 fps
    Color space : YUV
    Chroma subsampling : 4:2:0
    Bit depth : 8 bits
    Scan type : Progressive
    Compression mode : Lossy
    Bits/(Pixel*Frame) : 0.261
    Stream size : 1.11 GiB (81%)
    Writing library : XviD 1.2.1 (UTC 2008-12-04)
    ID : 1
    Format : AC-3
    Format/Info : Audio Coding 3
    Mode extension : CM (complete main)
    Codec ID : 2000
    Duration : 1h 32mn
    Bit rate mode : Constant
    Bit rate : 384 Kbps
    Channel(s) : 2 channels
    Channel positions : Front: L R
    Sampling rate : 48.0 KHz
    Bit depth : 16 bits
    Compression mode : Lossy
    Stream size : 253 MiB (18%)
    Alignment : Split accross interleaves
    Interleave, duration : 42 ms (1.00 video frame)
    Interleave, preload duration : 500 ms


    Download .torrent

    Download free and at maximum speed!

    How to Download? · What is a torrent? · Ratings and Limitations

    The site does not extend and does not store electronic(digital) versions of products, and only gives access to a reference catalogue created by users on torrent-files which contain only lists of the hash-sums, the earnest entreaty, with complaints(abuse) to access directly to the user. Files for an exchange on tracker are given by users of a site, and the administration does not bear the responsibility for their maintenance. The request to not fill in the files protected by copyrights, and also files of the illegal maintenance!

    [Profile] [PM]
    Display posts from previous:    
    Reply to topic

    The time now is: Today 02:56

    All times are GMT + 3 Hours

    You cannot post new topics in this forum
    You cannot reply to topics in this forum
    You cannot edit your posts in this forum
    You cannot delete your posts in this forum
    You cannot vote in polls in this forum
    You cannot attach files in this forum
    You cannot download files in this forum