Register  ·  Log in
Forgot password?

  • Приключения Паддингтона / Paddington (Пол Кинг / Paul King) [2014, Великобритания, Франция, Комедия, приключения, семейный, HDRip] Dub

    Reply to topic
    Author Message


    Post 09-Dec-2015 00:05



    Приключения Паддингтона / Paddington
    Страна: Великобритания, Франция
    Жанр: Комедия, приключения, семейный
    Год выпуска: 2014
    Продолжительность: 01:35:12
    Перевод: Профессиональный (дублированный)
    Cубтитры: нет-Режиссер: Пол Кинг / Paul King-В ролях: Бен Уишоу, Николь Кидман, Хью Бонневилль, Салли Хокинс, Джули Уолтерс, Мадлен Харрис, Сэмюэл Джослин, Джим Бродбент, Питер Капальди, Имелда Стонтон-Описание: Познакомьтесь, это медведь по имени Паддингтон из дремучего Перу. Он приехал в Лондон, чтобы обрести семью и стать настоящим английским джентльменом. На пути к этой цели его ожидают невероятные приключения, полные юмора и опасностей.-
    Качество видео: HDRip
    Формат видео: AVI
    Видео: 720x304, 23.976 fps, XviD, 1715 kbps, 0.33 bit/pixel
    Аудио: AC3, 48 kHz, 6 ch, 448.00 kbps


    Complete name : Priklucheniya_Paddingtona_2014_HDRip.avi
    Format : AVI
    Format/Info : Audio Video Interleave
    File size : 1.45 GiB
    Duration : 1h 35mn
    Overall bit rate : 2 173 Kbps
    Writing application : VirtualDubMod (build 2540/release)
    Writing library : VirtualDubMod build 2540/release
    Video #0
    ID : 0
    Format : MPEG-4 Visual
    Format profile : Advanced Simple@L5
    Format settings, BVOP : 1
    Format settings, QPel : No
    Format settings, GMC : No warppoints
    Format settings, Matrix : Custom
    Codec ID : XVID
    Codec ID/Hint : XviD
    Duration : 1h 35mn
    Bit rate : 1 716 Kbps
    Width : 720 pixels
    Height : 304 pixels
    Display aspect ratio : 2.35:1
    Frame rate : 23.976 fps
    Color space : YUV
    Chroma subsampling : 4:2:0
    Bit depth : 8 bits
    Scan type : Progressive
    Compression mode : Lossy
    Bits/(Pixel*Frame) : 0.327
    Stream size : 1.14 GiB (79%)
    Writing library : XviD 73
    Audio #1
    ID : 1
    Format : AC-3
    Format/Info : Audio Coding 3
    Mode extension : CM (complete main)
    Format settings, Endianness : Big
    Codec ID : 2000
    Duration : 1h 35mn
    Bit rate mode : Constant
    Bit rate : 448 Kbps
    Channel(s) : 6 channels
    Channel positions : Front: L C R, Side: L R, LFE
    Sampling rate : 48.0 KHz
    Bit depth : 16 bits
    Compression mode : Lossy
    Stream size : 305 MiB (21%)
    Alignment : Aligned on interleaves
    Interleave, duration : 42 ms (1.00 video frame)
    Interleave, preload duration : 512 ms

    Скриншот c названием фильма


    Download .torrent

    Download free and at maximum speed!

    How to Download? · What is a torrent? · Ratings and Limitations

    The site does not extend and does not store electronic(digital) versions of products, and only gives access to a reference catalogue created by users on torrent-files which contain only lists of the hash-sums, the earnest entreaty, with complaints(abuse) to access directly to the user. Files for an exchange on tracker are given by users of a site, and the administration does not bear the responsibility for their maintenance. The request to not fill in the files protected by copyrights, and also files of the illegal maintenance!

    [Profile] [PM]
    Display posts from previous:    
    Reply to topic

    The time now is: Today 23:31

    All times are GMT + 3 Hours

    You cannot post new topics in this forum
    You cannot reply to topics in this forum
    You cannot edit your posts in this forum
    You cannot delete your posts in this forum
    You cannot vote in polls in this forum
    You cannot attach files in this forum
    You cannot download files in this forum