BitTorrentTracker PerecTracker.org
BitTorrentTracker PerecTracker.org
    
Регистрация  ·  Вход
 
 · 
Забыли пароль?

  • Харольд здесь / Her er Harold (Гуннар Викене / Gunnar Vikene) [2014, Норвегия, комедия, драма, DVDRip] VO (Fatumovich) + Sub Rus, Nor + Original Nor

    Ответить на тему
     
    Автор Сообщение

    Light

    Создавать темы 08-Дек-2015 23:05

           

    [Цитировать]

    Харольд здесь / Her er Harold-Страна: Норвегия
    Жанр: комедия, драма
    Год выпуска: 2014
    Продолжительность: 01:24:32
    Перевод: Артем Рагулин
    Озвучка: Одноголосая закадровая - Fatumovich
    Cубтитры: русские, норвежские
    Оригинальная аудиодорожка: норвежский
    Режиссер: Гуннар Викене / Gunnar Vikene
    В ролях: Бьёрн Сундквист, Бьёрн Гранат, Самуэль Хелльстрём, Фанни Кеттер, Веслемёй Мёркид, Эверт Линдквист, Андреас Хюттсен, Улаф Хеггдаль, Видар Магнуссен-Описание: Мебельный магазин Харольда становится банкротом, когда в его городке открывают ИКЕА. Одержимый местью, Харольд отправляется в шведский город Эльмхульт, в котором была построена первая ИКЕА, и собирается похитить Ингвара Кампрада, основателя всемирно известного бренда.-Сэмпл: http://multi-up.com/1075069
    Качество видео: DVDRip
    Формат видео: AVI
    Видео: XviD, 720x304, (2,35:1), 25 fps, 2146 kbps
    Аудио: MP3, 44.1 kHz, 128 kbps, stereo - русский
    Аудио 2: AC3, 48 kHz, 448 kbps, 6 ch - оригинал
    Формат субтитров: softsub (SRT)
    Источник: видео и субтитры взяты отсюда: http://perectracker.org/viewtopic.php?t=5006238
    благодарим Скандинавский колейдоскоп

    MediaInfo

    Общее
    Полное имя : F:\Харольд здесь (Her er Harold)\Her er Harold.avi
    Формат : AVI
    Формат/Информация : Audio Video Interleave
    Размер файла : 1,61 Гбайт
    Продолжительность : 1 ч. 24 м.
    Общий поток : 2736 Кбит/сек
    Программа кодирования : VirtualDubMod 1.5.10.2 (build 2540/release)
    Библиотека кодирования : VirtualDubMod build 2540/release
    Видео
    Идентификатор : 0
    Формат : MPEG-4 Visual
    Профиль формата : Advanced Simple@L5
    Параметр BVOP формата : 3
    Параметр QPel формата : Да
    Параметр GMC формата : Без точки перехода
    Параметр матрицы формата : Выборочная
    Идентификатор кодека : XVID
    Идентификатор кодека/Подсказка : XviD
    Продолжительность : 1 ч. 24 м.
    Битрейт : 2146 Кбит/сек
    Ширина : 720 пикселей
    Высота : 304 пикселя
    Соотношение сторон : 2,35:1
    Частота кадров : 25,000 кадров/сек
    Цветовое пространство : YUV
    Субдискретизация насыщенности : 4:2:0
    Битовая глубина : 8 бит
    Тип развёртки : Прогрессивная
    Метод сжатия : С потерями
    Бит/(Пиксели*Кадры) : 0.392
    Размер потока : 1,27 Гбайт (78%)
    Библиотека кодирования : XviD 1.2.1 (UTC 2008-12-04)
    Аудио #1
    Идентификатор : 1
    Формат : MPEG Audio
    Версия формата : Version 1
    Профиль формата : Layer 3
    Режим : Joint stereo
    Идентификатор кодека : 55
    Идентификатор кодека/Подсказка : MP3
    Продолжительность : 1 ч. 24 м.
    Вид битрейта : Постоянный
    Битрейт : 128 Кбит/сек
    Каналы : 2 канала
    Частота : 44,1 КГц
    Метод сжатия : С потерями
    Размер потока : 77,3 Мбайт (5%)
    Выравнивание : Разделение по промежуткам
    Продолжительность промежутка : 40 мс. (1,00 видеокадр)
    Время предзагрузки промежутка : 500 мс.
    Аудио #2
    Идентификатор : 2
    Формат : AC-3
    Формат/Информация : Audio Coding 3
    Расширение режима : CM (complete main)
    Параметр Endianness формата : Big
    Идентификатор кодека : 2000
    Продолжительность : 1 ч. 24 м.
    Вид битрейта : Постоянный
    Битрейт : 448 Кбит/сек
    Каналы : 6 каналов
    Расположение каналов : Front: L C R, Side: L R, LFE
    Частота : 48,0 КГц
    Битовая глубина : 16 бит
    Метод сжатия : С потерями
    Размер потока : 271 Мбайт (16%)
    Выравнивание : Разделение по промежуткам
    Продолжительность промежутка : 40 мс. (1,00 видеокадр)
    Время предзагрузки промежутка : 500 мс.

    Скриншот c названием фильма

    Скриншоты

    Скачать .torrent

    Скачать торрент-файл бесплатно и на максимальной скорости!

    Как скачивать? · Что такое торрент? · Рейтинг и ограничения

    !ВНИМАНИЕ!
    Сайт не распространяет и не хранит электронные версии произведений, а занимается лишь лишь предоставлением доступа к создаваемому пользователями каталогу ссылок на торрент-файлы, которые содержат только списки хеш-сумм, убедительная просьба с жалобами обращаться напрямую к пользователю. Файлы для обмена на трекере предоставлены пользователями сайта, и администрация не несёт ответственности за их содержание. Просьба не заливать файлы, защищенные авторскими правами, а также файлы нелегального содержания!


    _________________
    [Профиль] [ЛС]
    Показать сообщения:    
    Ответить на тему

    Текущее время: Сегодня, в 08:33

    Часовой пояс: GMT + 2



    Вы не можете начинать темы
    Вы не можете отвечать на сообщения
    Вы не можете редактировать свои сообщения
    Вы не можете удалять свои сообщения
    Вы не можете голосовать в опросах
    Вы не можете прикреплять файлы к сообщениям
    Вы не можете скачивать файлы