BitTorrentTracker PerecTracker.org
BitTorrentTracker PerecTracker.org
    
Регистрация  ·  Вход
 
 · 
Забыли пароль?

  • Чистилище / Purgatorio (Пау Тейксидор / Pau Teixidor) [2014, Испания, Ужасы, триллер, DVDRip] DVO

    Ответить на тему
     
    Автор Сообщение

    Light

    Создавать темы 08-Дек-2015 23:05

           

    [Цитировать]

    Чистилище / PurgatorioСтрана: Испания
    Жанр: Ужасы, триллер
    Год выпуска: 2014
    Продолжительность: 01:19:08
    Перевод: Любительский (двухголосый закадровый) datynet & Galina Vasyukova; перевод: Куценко
    Cубтитры: нет
    Оригинальная аудиодорожка: нет
    Режиссер: Пау Тейксидор / Pau Teixidor
    В ролях: Уна Чаплин, Сержи Мендес, Андрес Гертрудикс, Ана Фернандес
    Описание: Новый дом только начинает обретать своих жильцов. Одной из них становится Марта и ее муж. Она еще совершенно незнакома со своими новыми соседями и пытается наладить с ними контакт. Однажды муж вынужден оставить Марту одну на целую ночь. Но провести ее в одиночестве женщине не удалось: соседка попросила присмотреть за ее сыном Даниэлем. Наступила ночь, а мальчика никто не забирает. Но Марту беспокоит совершенно иное, ведь поведение Даниэля пугает ее все больше с каждой минутой...
    Доп. информация:

    Сэмпл: http://multi-up.com/1075130
    Качество видео: DVDRip
    Формат видео: AVI
    Видео: 720x304 (2.37:1), 25 fps, XviD MPEG-4 ~2063 kbps avg, 0.38 bit/pixel
    Аудио: 44.100 kHz, MPEG Layer 3, 2 ch, ~256.00 kbps avg

    MediaInfo

    General
    Complete name : J:\Purgatorio DVDRip.avi
    Format : AVI
    Format/Info : Audio Video Interleave
    File size : 1.29 GiB
    Duration : 1h 19mn
    Overall bit rate : 2 329 Kbps
    Writing application : VirtualDubMod 1.5.10.2 (build 2540/release)
    Writing library : VirtualDub build 35576/release
    Video
    ID : 0
    Format : MPEG-4 Visual
    Format profile : Simple@L5
    Format settings, BVOP : No
    Format settings, QPel : No
    Format settings, GMC : No warppoints
    Format settings, Matrix : Default (H.263)
    Codec ID : XVID
    Codec ID/Hint : XviD
    Duration : 1h 19mn
    Bit rate : 2 064 Kbps
    Width : 720 pixels
    Height : 304 pixels
    Display aspect ratio : 2.35:1
    Frame rate : 25.000 fps
    Resolution : 8 bits
    Colorimetry : 4:2:0
    Scan type : Progressive
    Bits/(Pixel*Frame) : 0.377
    Stream size : 1.14 GiB (89%)
    Writing library : XviD 64
    Audio
    ID : 1
    Format : MPEG Audio
    Format version : Version 1
    Format profile : Layer 3
    Codec ID : 55
    Codec ID/Hint : MP3
    Duration : 1h 19mn
    Bit rate mode : Constant
    Bit rate : 256 Kbps
    Channel(s) : 2 channels
    Sampling rate : 44.1 KHz
    Stream size : 145 MiB (11%)
    Alignment : Split accross interleaves
    Interleave, duration : 40 ms (1.00 video frame)
    Interleave, preload duration : 500 ms

    Скриншоты








    Скачать .torrent

    Скачать торрент-файл бесплатно и на максимальной скорости!

    Как скачивать? · Что такое торрент? · Рейтинг и ограничения

    !ВНИМАНИЕ!
    Сайт не распространяет и не хранит электронные версии произведений, а занимается лишь лишь предоставлением доступа к создаваемому пользователями каталогу ссылок на торрент-файлы, которые содержат только списки хеш-сумм, убедительная просьба с жалобами обращаться напрямую к пользователю. Файлы для обмена на трекере предоставлены пользователями сайта, и администрация не несёт ответственности за их содержание. Просьба не заливать файлы, защищенные авторскими правами, а также файлы нелегального содержания!


    _________________
    [Профиль] [ЛС]
    Показать сообщения:    
    Ответить на тему

    Текущее время: Сегодня, в 06:52

    Часовой пояс: GMT + 2



    Вы не можете начинать темы
    Вы не можете отвечать на сообщения
    Вы не можете редактировать свои сообщения
    Вы не можете удалять свои сообщения
    Вы не можете голосовать в опросах
    Вы не можете прикреплять файлы к сообщениям
    Вы не можете скачивать файлы