Register  ·  Log in
Forgot password?

  • Школьный проект / Perfect Sisters (Стэнли М. Брукс / Stanley M. Brooks) [2013, Канада, Драма, триллер, HDRip] DVO (2D)

    Reply to topic
    Author Message


    Post 09-Dec-2015 00:05



    Школьный проект / Perfect Sisters
    Страна: Канада
    Жанр: Драма, триллер
    Год выпуска: 2013
    Продолжительность: 01:36:40
    Перевод: Любительский (двухголосый закадровый) [2D]
    Cубтитры: нет-Режиссер: Стэнли М. Брукс / Stanley M. Brooks-В ролях: Эбигейл Бреслин, Джорджи Хенли, Мира Сорвино, Джеймс Руссо, Расти Швиммер, Зои Белкин, Джеффри Баллард, Джонатан Мэйлен, Стивен Джеймс, Зак Сантьяго-Описание: В центре повествования находятся две сестры из Канады, которые устали от алкоголизма матери и грязных намеков ее очередного ухажера. И девочки приходят к выводу, что им будет лучше житься, если они избавятся от матери.-Релиз от: -Сэмпл:Качество видео: HDRip
    Формат видео: AVI
    Видео: 720x400, 25 fps, XviD, 1822 kbps, 0.25 bit/pixel
    Аудио: 48 kHz, AC3, 2 ch, 192 kbps


    Complete name : Perfect Sisters.2014.L2.HDRip.avi
    Format : AVI
    Format/Info : Audio Video Interleave
    File size : 1.37 GiB
    Duration : 1h 36mn
    Overall bit rate : 2 025 Kbps
    Writing application : VirtualDubMod | || (build 2550/release)
    Writing library : VirtualDubMod build 2550/release
    Video #0
    ID : 0
    Format : MPEG-4 Visual
    Format profile : Advanced Simple@L5
    Format settings, BVOP : 2
    Format settings, QPel : No
    Format settings, GMC : No warppoints
    Format settings, Matrix : Default (H.263)
    Codec ID : XVID
    Codec ID/Hint : XviD
    Duration : 1h 36mn
    Bit rate : 1 823 Kbps
    Width : 720 pixels
    Height : 400 pixels
    Display aspect ratio : 16:9
    Frame rate : 25.000 fps
    Color space : YUV
    Chroma subsampling : 4:2:0
    Bit depth : 8 bits
    Scan type : Progressive
    Compression mode : Lossy
    Bits/(Pixel*Frame) : 0.253
    Stream size : 1.23 GiB (90%)
    Writing library : XviD 1.2.1 (UTC 2008-12-04)
    Audio #1
    ID : 1
    Format : AC-3
    Format/Info : Audio Coding 3
    Mode extension : CM (complete main)
    Format settings, Endianness : Big
    Codec ID : 2000
    Duration : 1h 36mn
    Bit rate mode : Constant
    Bit rate : 192 Kbps
    Channel(s) : 2 channels
    Channel positions : Front: L R
    Sampling rate : 48.0 KHz
    Bit depth : 16 bits
    Compression mode : Lossy
    Stream size : 133 MiB (9%)
    Alignment : Split accross interleaves
    Interleave, duration : 40 ms (1.00 video frame)
    Interleave, preload duration : 500 ms

    Скриншот c названием фильма


    Download .torrent

    Download free and at maximum speed!

    How to Download? · What is a torrent? · Ratings and Limitations

    The site does not extend and does not store electronic(digital) versions of products, and only gives access to a reference catalogue created by users on torrent-files which contain only lists of the hash-sums, the earnest entreaty, with complaints(abuse) to access directly to the user. Files for an exchange on tracker are given by users of a site, and the administration does not bear the responsibility for their maintenance. The request to not fill in the files protected by copyrights, and also files of the illegal maintenance!

    [Profile] [PM]
    Display posts from previous:    
    Reply to topic

    The time now is: Today 23:23

    All times are GMT + 3 Hours

    You cannot post new topics in this forum
    You cannot reply to topics in this forum
    You cannot edit your posts in this forum
    You cannot delete your posts in this forum
    You cannot vote in polls in this forum
    You cannot attach files in this forum
    You cannot download files in this forum