BitTorrentTracker PerecTracker.org
BitTorrentTracker PerecTracker.org
    
Регистрация  ·  Вход
 
 · 
Забыли пароль?

  • Саломея / Salome (Аль Пачино / Al Pacino) [2013, США, драма, трагедия, HDRip] Sub Rus + Original Eng

    Ответить на тему
     
    Автор Сообщение

    Light

    Создавать темы 08-Дек-2015 23:05

           

    [Цитировать]

    Саломея / Salome
    Страна: США
    Жанр: драма, трагедия
    Год выпуска: 2013
    Продолжительность: 01:20:58
    Перевод: Субтитры Vova Ramone
    Cубтитры: русские
    Оригинальная аудиодорожка: английский
    Режиссер: Аль Пачино / Al Pacino
    В ролях: Аль Пачино, Кевин Андерсон, Джессика Честейн, Ральф Гуццо, Роксанна Харт, Филлип Риз, Стив Роман, Джо Розето, Джек Стелин.
    Описание: Библейская история Саломеи, девушки, которая согласилась исполнить «танец семи покрывал» в обмен на голову Иоанна Крестителя на серебряном блюде.
    Сэмпл: http://sendfile.su/1173516
    Качество видео: HDRip
    Формат видео: MKV
    Видео: 720x472 (2.37:1), 23.976 fps, V_MPEG4/ISO/AVC, 1632 kbps avg, 0.2 bit/pixel
    Аудио: A_AC3, 3/2 (L,C,R,l,r) + LFE ch, 448 kbps, 48.0 KHz
    Формат субтитров: softsub (SRT)

    MediaInfo

    General
    Complete name : D:\Salome 2013\Salome.2013.mkv
    Format : Matroska
    File size : 1.20 GiB
    Duration : 1h 20mn
    Overall bit rate : 2 122 Kbps
    Encoded date : UTC 2015-11-13 19:00:35
    Writing application : mkvmerge v6.7.0 ('Back to the Ground') 32bit built on Jan 8 2014 15:03:17
    Writing library : libebml v1.3.0 + libmatroska v1.4.1
    Video
    ID : 1
    Format : AVC
    Format/Info : Advanced Video Codec
    Format profile : High@L3.1
    Format settings, CABAC : Yes
    Format settings, ReFrames : 10 frames
    Muxing mode : Container profile=Unknown@3.1
    Codec ID : V_MPEG4/ISO/AVC
    Duration : 1h 20mn
    Bit rate : 1 632 Kbps
    Width : 720 pixels
    Height : 472 pixels
    Display aspect ratio : 16:9
    Original display aspect ratio : 16:9
    Frame rate : 23.976 fps
    Color space : YUV
    Chroma subsampling : 4:2:0
    Bit depth : 8 bits
    Scan type : Progressive
    Bits/(Pixel*Frame) : 0.200
    Stream size : 945 MiB (77%)
    Writing library : x264 core 142 r2479 dd79a61
    Encoding settings : cabac=1 / ref=10 / deblock=1:-3:-3 / analyse=0x3:0x133 / me=umh / subme=9 / psy=1 / psy_rd=1.00:0.00 / mixed_ref=1 / me_range=32 / chroma_me=1 / trellis=2 / 8x8dct=1 / cqm=0 / deadzone=21,11 / fast_pskip=0 / chroma_qp_offset=-2 / threads=3 / lookahead_threads=1 / sliced_threads=0 / nr=0 / decimate=1 / interlaced=0 / bluray_compat=0 / constrained_intra=0 / bframes=8 / b_pyramid=2 / b_adapt=2 / b_bias=0 / direct=3 / weightb=1 / open_gop=0 / weightp=2 / keyint=240 / keyint_min=24 / scenecut=40 / intra_refresh=0 / rc_lookahead=100 / rc=crf / mbtree=1 / crf=15.8 / qcomp=0.60 / qpmin=0 / qpmax=69 / qpstep=4 / ip_ratio=1.40 / aq=1:1.00
    Color primaries : BT.601-6 525, BT.1358 525, BT.1700 NTSC, SMPTE 170M
    Transfer characteristics : BT.709-5, BT.1361
    Matrix coefficients : BT.601-6 525, BT.1358 525, BT.1700 NTSC, SMPTE 170M
    Audio
    ID : 2
    Format : AC-3
    Format/Info : Audio Coding 3
    Mode extension : CM (complete main)
    Codec ID : A_AC3
    Duration : 1h 20mn
    Bit rate mode : Constant
    Bit rate : 448 Kbps
    Channel(s) : 6 channels
    Channel positions : Front: L C R, Side: L R, LFE
    Sampling rate : 48.0 KHz
    Bit depth : 16 bits
    Stream size : 259 MiB (21%)
    Title : Surround
    Text
    ID : 3
    Format : UTF-8
    Codec ID : S_TEXT/UTF8
    Codec ID/Info : UTF-8 Plain Text

    Пример Субтитров

    101
    00:06:08,634 --> 00:06:09,931
    Вон тот Нааман,
    102
    00:06:10,901 --> 00:06:12,744
    палач который.
    103
    00:06:14,874 --> 00:06:16,080
    И не боялся он?
    104
    00:06:16,209 --> 00:06:17,180
    Ничуть!
    105
    00:06:19,599 --> 00:06:21,546
    Тетрарх послал ему кольцо.
    106
    00:06:21,547 --> 00:06:22,312
    Что за кольцо?
    107
    00:06:22,312 --> 00:06:24,190
    Кольцо погибели.
    108
    00:06:25,221 --> 00:06:26,771
    Так что, не страшился он.
    109
    00:06:27,620 --> 00:06:30,430
    И всё же задушить короля ужасная вещь.
    110
    00:06:30,523 --> 00:06:31,212
    С чего?
    111
    00:06:31,681 --> 00:06:34,659
    Шея короля такая же
    как и у простого люда.
    112
    00:06:34,660 --> 00:06:36,085
    Ужасно всё же это.
    113
    00:06:37,730 --> 00:06:39,157
    Принцесса поднимается!
    114
    00:06:41,623 --> 00:06:42,822
    Встаёт из-за стола!
    115
    00:06:43,536 --> 00:06:45,279
    И вид её встрвожен.
    116
    00:06:45,842 --> 00:06:47,148
    Как же бледна она!
    117
    00:06:47,740 --> 00:06:49,219
    Столь бледной не видел я её.
    118
    00:06:49,728 --> 00:06:50,672
    Не смей смотреть ты на неё.
    119
    00:06:51,075 --> 00:06:52,898
    Молю, не смей.
    120
    00:06:52,912 --> 00:06:55,124
    Словно заблудшая голубка.
    121
    00:06:56,549 --> 00:06:59,112
    Как нарцисс дрожащий на ветру.
    122
    00:07:01,254 --> 00:07:02,961
    Словно серебряный цветок.
    123
    00:07:05,858 --> 00:07:06,977
    Я не останусь.
    124
    00:07:08,390 --> 00:07:09,761
    Я не могу.
    125
    00:07:09,762 --> 00:07:11,867
    С чего Тетрарх всё время смотрит на меня,
    126
    00:07:11,998 --> 00:07:14,376
    глазами точь-в-точь как у крота,
    из под его дрожащих век?

    Скриншот c названием фильма

    Скриншоты





    Скачать .torrent

    Скачать торрент-файл бесплатно и на максимальной скорости!

    Как скачивать? · Что такое торрент? · Рейтинг и ограничения

    !ВНИМАНИЕ!
    Сайт не распространяет и не хранит электронные версии произведений, а занимается лишь лишь предоставлением доступа к создаваемому пользователями каталогу ссылок на торрент-файлы, которые содержат только списки хеш-сумм, убедительная просьба с жалобами обращаться напрямую к пользователю. Файлы для обмена на трекере предоставлены пользователями сайта, и администрация не несёт ответственности за их содержание. Просьба не заливать файлы, защищенные авторскими правами, а также файлы нелегального содержания!


    _________________
    [Профиль] [ЛС]
    Показать сообщения:    
    Ответить на тему

    Текущее время: Сегодня, в 07:54

    Часовой пояс: GMT + 2



    Вы не можете начинать темы
    Вы не можете отвечать на сообщения
    Вы не можете редактировать свои сообщения
    Вы не можете удалять свои сообщения
    Вы не можете голосовать в опросах
    Вы не можете прикреплять файлы к сообщениям
    Вы не можете скачивать файлы