Register  ·  Log in
Forgot password?

  • Гнев вороны / Wrath of the Crows (Айван Зуккон / Ivan Zuccon) [2013, Италия, Ужасы, триллер, детектив, DVDRip] VO (Васька Куролесов)

    Reply to topic
    Author Message


    Post 09-Dec-2015 00:05



    Гнев вороны / Wrath of the Crows
    Страна: Италия
    Жанр: Ужасы, триллер, детектив
    Год выпуска: 2013
    Продолжительность: 01:26:22
    Перевод: Одноголосый закадровый Васька Куролесов по субтитрам МЕГАПЫХАРЬ
    Cубтитры: нет
    Оригинальная аудиодорожка: нет
    Режиссер: Айван Зуккон / Ivan Zuccon
    В ролях: Тиффани Шепис, Дэбби Рошон, Тара Кардинал, Домициано Арканджели, Сьюзи Лоррейн, Майкл Сигал, Брайан Форчун, Джерри Шэнэхэн, Эмануэль Керман, Матео Тоси
    Описание: Их судьба, наверное, самая худшая со всех которою только можно поискать среди людей. Они заключенные самой жестокой тюрьмы, где их охрана и начальство самых жестокие существа на свете. В маленькой тюрьме заключенные каждый день терпят издевательства, которые преподносит им Судья. Это он отдает кровавые приказы своим пешкам, но кто он на самом деле так пока никто и не знает.

    Качество видео: DVDRip
    Формат видео: AVI
    Видео: XviD, 2077 Кбит/с, 720x400, 23.976 fps
    Аудио: MP3, 2 ch, 192 Кбит/с, 48.0 KHz


    Complete name : G:\Wrath of the Crows.2013.DVDRip.avi
    Format : AVI
    Format/Info : Audio Video Interleave
    File size : 1.37 GiB
    Duration : 1h 26mn
    Overall bit rate : 2 279 Kbps
    ID : 0
    Format : MPEG-4 Visual
    Format profile : Advanced Simple@L5
    Format settings, BVOP : 2
    Format settings, QPel : No
    Format settings, GMC : No warppoints
    Format settings, Matrix : Default (H.263)
    Codec ID : XVID
    Codec ID/Hint : XviD
    Duration : 1h 26mn
    Bit rate : 2 077 Kbps
    Width : 720 pixels
    Height : 400 pixels
    Display aspect ratio : 16:9
    Frame rate : 23.976 fps
    Color space : YUV
    Chroma subsampling : 4:2:0
    Bit depth : 8 bits
    Scan type : Progressive
    Compression mode : Lossy
    Bits/(Pixel*Frame) : 0.301
    Stream size : 1.25 GiB (91%)
    Writing library : XviD 67
    ID : 1
    Format : MPEG Audio
    Format version : Version 1
    Format profile : Layer 3
    Codec ID : 55
    Codec ID/Hint : MP3
    Duration : 1h 26mn
    Bit rate mode : Constant
    Bit rate : 192 Kbps
    Channel(s) : 2 channels
    Sampling rate : 48.0 KHz
    Compression mode : Lossy
    Stream size : 119 MiB (8%)
    Alignment : Split accross interleaves
    Interleave, duration : 42 ms (1.00 video frame)

    Скриншот c названием фильма


    Download .torrent

    Download free and at maximum speed!

    How to Download? · What is a torrent? · Ratings and Limitations

    The site does not extend and does not store electronic(digital) versions of products, and only gives access to a reference catalogue created by users on torrent-files which contain only lists of the hash-sums, the earnest entreaty, with complaints(abuse) to access directly to the user. Files for an exchange on tracker are given by users of a site, and the administration does not bear the responsibility for their maintenance. The request to not fill in the files protected by copyrights, and also files of the illegal maintenance!

    [Profile] [PM]
    Display posts from previous:    
    Reply to topic

    The time now is: Today 01:02

    All times are GMT + 3 Hours

    You cannot post new topics in this forum
    You cannot reply to topics in this forum
    You cannot edit your posts in this forum
    You cannot delete your posts in this forum
    You cannot vote in polls in this forum
    You cannot attach files in this forum
    You cannot download files in this forum