BitTorrentTracker PerecTracker.org
BitTorrentTracker PerecTracker.org
    
Регистрация  ·  Вход
 
 · 
Забыли пароль?

  • В день свадьбы (Вадим Михайлов) [1968, драма, DVB, AVC]

    Ответить на тему
     
    Автор Сообщение

    Light

    Создавать темы 08-Дек-2015 23:04

           

    [Цитировать]

    В день свадьбы
    Жанр: драма
    Год выпуска: 1968
    Продолжительность: 01:08:22
    Режиссёр: Вадим Михайлов
    В ролях: Лариса Малеванная, Анатолий Спивак, Евгения Уралова, Лев Круглый, Михаил Ладыгин, Виктор Авдюшко, Наталья Крудова, Виолетта Жухимович, Любовь Малиновская, Аркадий Трусов
    Описание: Михаил и Нюра готовятся к свадьбе. Неожиданно в город возвращается Клава, первая любовь Михаила…
    Качество видео: DVB-AVC
    Формат видео: MKV
    Видео: H.264/AVC, 720x576, 1.36:1, 25.00fps, 2104 Kbps
    Аудио: MP2 2.0, DD 2.0, 48 kHz, 192 kbps

    MediaInfo

    General
    Unique ID : 100198868118921483491162061056076978804 (0x4B61999CE7118230A468A1C93D109A74)
    Complete name : В день свадьбы (1968) DVB.mkv
    Format : Matroska
    Format version : Version 2
    File size : 1.12 GiB
    Duration : 1h 8mn
    Overall bit rate : 2 343 Kbps
    Writing application : Lavf54.63.104
    Writing library : Lavf54.63.104
    Video
    ID : 1
    Format : AVC
    Format/Info : Advanced Video Codec
    Format profile : High@L3.0
    Format settings, CABAC : Yes
    Format settings, ReFrames : 4 frames
    Format settings, GOP : M=4, N=24
    Codec ID : V_MPEG4/ISO/AVC
    Duration : 1h 8mn
    Bit rate : 2 104 Kbps
    Width : 720 pixels
    Height : 576 pixels
    Display aspect ratio : 4:3
    Original display aspect ratio : 4:3
    Frame rate mode : Constant
    Frame rate : 25.000 fps
    Standard : Component
    Color space : YUV
    Chroma subsampling : 4:2:0
    Bit depth : 8 bits
    Scan type : Interlaced
    Scan order : Top Field First
    Bits/(Pixel*Frame) : 0.203
    Stream size : 1.00 GiB (90%)
    Default : No
    Forced : No
    Color primaries : BT.601 PAL
    Transfer characteristics : BT.470 System B, BT.470 System G
    Matrix coefficients : BT.601
    Color range : Limited
    Audio
    ID : 2
    Format : MPEG Audio
    Format version : Version 1
    Format profile : Layer 2
    Codec ID : A_MPEG/L2
    Codec ID/Hint : MP2
    Duration : 1h 8mn
    Bit rate mode : Constant
    Bit rate : 192 Kbps
    Channel(s) : 2 channels
    Sampling rate : 48.0 KHz
    Compression mode : Lossy
    Stream size : 93.9 MiB (8%)
    Language : Russian
    Default : Yes
    Forced : No

    Скриншоты

    Скачать .torrent

    Скачать торрент-файл бесплатно и на максимальной скорости!

    Как скачивать? · Что такое торрент? · Рейтинг и ограничения

    !ВНИМАНИЕ!
    Сайт не распространяет и не хранит электронные версии произведений, а занимается лишь лишь предоставлением доступа к создаваемому пользователями каталогу ссылок на торрент-файлы, которые содержат только списки хеш-сумм, убедительная просьба с жалобами обращаться напрямую к пользователю. Файлы для обмена на трекере предоставлены пользователями сайта, и администрация не несёт ответственности за их содержание. Просьба не заливать файлы, защищенные авторскими правами, а также файлы нелегального содержания!


    _________________
    [Профиль] [ЛС]
    Показать сообщения:    
    Ответить на тему

    Текущее время: Сегодня, в 06:57

    Часовой пояс: GMT + 2



    Вы не можете начинать темы
    Вы не можете отвечать на сообщения
    Вы не можете редактировать свои сообщения
    Вы не можете удалять свои сообщения
    Вы не можете голосовать в опросах
    Вы не можете прикреплять файлы к сообщениям
    Вы не можете скачивать файлы