BitTorrentTracker PerecTracker.org
BitTorrentTracker PerecTracker.org
    
Регистрация  ·  Вход
 
 · 
Забыли пароль?

  • Зачарованный замок / Проклятый дворец / The Haunted Palace (Роджер Корман / Roger Corman) [1963 г., Ужасы, HDRip] DVO (5-й канал) + AVO (Васильев)

    Ответить на тему
     
    Автор Сообщение

    Columb

    Создавать темы 02-Авг-2013 17:02

           

    [Цитировать]

    Зачарованный замок / Проклятый дворец / The Haunted Palace-Год выпуска: 1963.
    Страна: США .
    Киностудии: American International Pictures (AIP), La Honda Productions.
    Жанр: Ужасы.
    Продолжительность: 01:27:01.
    Перевод 1: Профессиональский (двухголосый закадровый) Петербург 5-й канал.
    Перевод 2: Авторский (одноголосый закадровый) Андрей Васильев.
    Cубтитры: нет.
    Оригинальная аудио дорожка: нет.
    Режиссер: Роджер Корман /Roger Corman/.
    Авторы сценария: Говард Филлипс Лавкрафт, Чарльз Бомонт, Френсис Форд Коппола (в титрах не указан).
    Продюсеры: Сэмюэл З. Аркофф, Роджер Кормен, Джеймс Х. Николсон, Рональд Синклер.
    Оператор: Флойд Кросби.
    Композитор: Роналд Стайн.
    В ролях:
    Винсент Прайс, Дебра Пэйджет, Лон Чэйни мл., Фрэнк Максвелл, Лео Гордон, Элиша Кук мл., Джон Диркс, Милтон Парсонс, Кэти Мерчант, Гай Уилкерсон.
    Описание:
    В деревне Аркхэм в 1765 году происходят таинственные исчезновения людей. Влиятельный помещик Джозеф Кервен, обвиненный в человеческих жертвоприношениях, сожжен. Но на смертном одре он проклял жителей деревни, пообещав жестоко отомстить. Сто лет спустя потомок Кервена Чарльз Декстер Уорд и его жена Анна приезжают в Аркхэм в имение своего предка. Вскоре Чарльз обнаруживает, что деревня населена жутковатыми мутантами, а в замке обитает злой дух проклятого Кервена...
    Доп. информация:
    Премьера: 28 августа 1963 года.
    Фильм поставлен по рассказу Говарда Филлипса Лавкрафта "История Чарльза Декстера Уорда".

    Знаете ли Вы, что...

    • Дополнительные монологи написал Френсис Форд Коппола.
    • Роджер Корман хотел пригласить в фильм Бориса Карлоффа, но тот отклонил предложения из-за состояния здоровья, поэтому в картине появился Лон Чейни.

    Релиз HeDgEhOt
    Релиз содержит две звуковые дорожки: профессиональный двухголосый перевод (5-й канал) и авторский перевод Васильева!
    Качество: HDRip
    Формат: AVI
    Видео: 672x288 (2.33:1), 23.976 fps, XviD build 50 ~959 kbps avg, 0.21 bit/pixel
    Аудио: #1: 48 kHz, MPEG Layer 3, 2 ch, ~112.00 kbps avg - русский (профессиональский двухголосый перевод)
    #2: 48 kHz, MPEG Layer 3, 2 ch, ~112.00 kbps avg - русский (одноголосый перевод)

    MediaInfo

    Общее
    Полное имя : Zacharovannyj.zamok.1963.XviD.HDRip.by.HeDgEhOt_745.avi
    Формат : AVI
    Формат/Информация : Audio Video Interleave
    Размер файла : 746 Мбайт
    Продолжительность : 1 ч. 27 м.
    Общий поток : 1198 Кбит/сек
    Название фильма : Зачарованный замок / Проклятый дворец / Haunted Palace, The (1963)
    Правообладатель : HeDgEhOt®
    Видео
    Идентификатор : 0
    Формат : MPEG-4 Visual
    Профиль формата : Advanced Simple@L5
    Параметр BVOP формата : 1
    Параметр QPel формата : Нет
    Параметр GMC формата : Без точки перехода
    Параметр матрицы формата : Default (MPEG)
    Идентификатор кодека : XVID
    Идентификатор кодека/Подсказка : XviD
    Продолжительность : 1 ч. 27 м.
    Битрейт : 960 Кбит/сек
    Ширина : 672 пикселя
    Высота : 288 пикселей
    Соотношение сторон : 2,35:1
    Частота кадров : 23,976 кадра/сек
    Цветовое пространство : YUV
    Субдискретизация насыщенности : 4:2:0
    Битовая глубина : 8 бит
    Тип развёртки : Прогрессивная
    Метод сжатия : С потерями
    Бит/(Пиксели*Кадры) : 0.207
    Размер потока : 598 Мбайт (80%)
    Библиотека кодирования : XviD 1.2.1 (UTC 2008-12-04)
    Аудио #1
    Идентификатор : 1
    Формат : MPEG Audio
    Версия формата : Version 1
    Профиль формата : Layer 3
    Режим : Joint stereo
    Расширение режима : MS Stereo
    Идентификатор кодека : 55
    Идентификатор кодека/Подсказка : MP3
    Продолжительность : 1 ч. 27 м.
    Вид битрейта : Постоянный
    Битрейт : 112 Кбит/сек
    Каналы : 2 канала
    Частота : 48,0 КГц
    Метод сжатия : С потерями
    Размер потока : 69,7 Мбайт (9%)
    Выравнивание : Соединение по промежуткам
    Продолжительность промежутка : 42 мс. (1,00 видеокадр)
    Время предзагрузки промежутка : 504 мс.
    Аудио #2
    Идентификатор : 2
    Формат : MPEG Audio
    Версия формата : Version 1
    Профиль формата : Layer 3
    Режим : Joint stereo
    Идентификатор кодека : 55
    Идентификатор кодека/Подсказка : MP3
    Продолжительность : 1 ч. 27 м.
    Вид битрейта : Постоянный
    Битрейт : 112 Кбит/сек
    Каналы : 2 канала
    Частота : 48,0 КГц
    Метод сжатия : С потерями
    Размер потока : 69,7 Мбайт (9%)
    Выравнивание : Соединение по промежуткам
    Продолжительность промежутка : 42 мс. (1,00 видеокадр)
    Время предзагрузки промежутка : 504 мс.

    Скриншоты

    Скачать .torrent

    Скачать торрент-файл бесплатно и на максимальной скорости!

    Как скачивать? · Что такое торрент? · Рейтинг и ограничения

    !ВНИМАНИЕ!
    Сайт не распространяет и не хранит электронные версии произведений, а занимается лишь лишь предоставлением доступа к создаваемому пользователями каталогу ссылок на торрент-файлы, которые содержат только списки хеш-сумм, убедительная просьба с жалобами обращаться напрямую к пользователю. Файлы для обмена на трекере предоставлены пользователями сайта, и администрация не несёт ответственности за их содержание. Просьба не заливать файлы, защищенные авторскими правами, а также файлы нелегального содержания!

    [Профиль] [ЛС]
    Показать сообщения:    
    Ответить на тему

    Текущее время: Сегодня, в 12:55

    Часовой пояс: GMT + 2



    Вы не можете начинать темы
    Вы не можете отвечать на сообщения
    Вы не можете редактировать свои сообщения
    Вы не можете удалять свои сообщения
    Вы не можете голосовать в опросах
    Вы не можете прикреплять файлы к сообщениям
    Вы не можете скачивать файлы