BitTorrentTracker PerecTracker.org
BitTorrentTracker PerecTracker.org
    
Регистрация  ·  Вход
 
 · 
Забыли пароль?

  • Темнее ночи / Más negro que la noche / Darker than Night (Генри Бедуэлл / Henry Bedwell) [2014, Мексика, Испания, Фильм ужасов, HDRip] Dub

    Ответить на тему
     
    Автор Сообщение

    Light

    Создавать темы 08-Дек-2015 23:04

           

    [Цитировать]

    Темнее ночи / Más negro que la noche / Darker than Night
    Совместное производство: Мексика, Испания
    Жанр: Фильм ужасов
    Год выпуска: 2014
    Продолжительность: 01:50:20
    Перевод: Профессиональный (дублированный)
    Cубтитры: Отсутствуют
    Оригинальная аудиодорожка: нет
    Режиссёр: Генри Бедуэлл / Henry Bedwell
    Актёры: Сурия Вега, Мигель Родарт, Эрендира Ибарра, Сара Манни, Адриана Лувьер, Она Касамикела, Даниель Виллар, и др.
    Краткая аннотация: Тётка Офелия перекинулась. Наследная малява бакланит - пусть Грета, соплемянница еёная, живёт и пользует особняк-дом тёткой на нетрудовые доходы дОбытый, и после смерти тёткиной сиротой ставший. Ещё тётка Офелия высочайше повелеть соизволила, чтоб кот еёный чёрный с кликухой Беккер, в особняке-доме жить оставшийся, после смерти тёткиной был под надзором, и чтоб Грета была ему пастырем, и была б у него на посылках и на побегушках - если коту надобность будет. У Греты штаны переполнились радостью через край! В состоянии неописуемого восторга, и вместе с кучей подруг почуявших халяву, она заселяется в наследные хоромы. Однако всё не так просто, как на первый взгляд привиделось...

    Качество видео: HDRip
    Формат видео: AVI
    Video: 720x304 (2.37:1), 23.976 fps, XviD build 50 ~1379 kbps avg, 0.26 bit/pixel
    Audio: 48 kHz, AC3 Dolby Digital, 3/2 (L,C,R,l,r) + LFE ch, ~384 kbps

    AviInfo

    File: Más_negro_que_la_noche_2014_HDRip_[perectracker.org].aviFilesize: 1399.08 Mb ( 1 467 043 840 bytes )Play length: 01:50:20.739 (158739 frames)Subtitles: Not PresentVideo: 720x304 (2.37:1), 23.976 fps, XviD build 50 ~1379 kbps avg, 0.26 bit/pixelAudio: 48 kHz, AC3 Dolby Digital, 3/2 (L,C,R,l,r) + LFE ch, ~384 kbps

    MediaInfo

    ОбщееПолное имя : V:\Más_negro_que_la_noche_2014_HDRip_[perectracker.org].aviФормат : AVIФормат/Информация : Audio Video InterleaveРазмер файла : 1,37 ГбайтПродолжительность : 1 ч. 50 м.Общий поток : 1773 Кбит/секПрограмма кодирования : VirtualDubMod 1.5.10.2 (build 2540/release)Библиотека кодирования : VirtualDubMod build 2540/release
    ВидеоИдентификатор : 0Формат : MPEG-4 VisualПрофиль формата : Advanced Simple@L5Параметр BVOP формата : 2Параметр QPel формата : НетПараметр GMC формата : Без точки переходаПараметр матрицы формата : Default (MPEG)Идентификатор кодека : XVIDИдентификатор кодека/Подсказка : XviDПродолжительность : 1 ч. 50 м.Битрейт : 1379 Кбит/секШирина : 720 пикселейВысота : 304 пикселяСоотношение сторон : 2,35:1Частота кадров : 23,976 кадра/секЦветовое пространство : YUVСубдискретизация насыщенности : 4:2:0Битовая глубина : 8 битТип развёртки : ПрогрессивнаяМетод сжатия : С потерямиБит/(Пиксели*Кадры) : 0.263Размер потока : 1,06 Гбайт (78%)Библиотека кодирования : XviD 1.2.1 (UTC 2008-12-04)
    АудиоИдентификатор : 1Формат : AC-3Формат/Информация : Audio Coding 3Расширение режима : CM (complete main)Параметр Endianness формата : BigИдентификатор кодека : 2000Продолжительность : 1 ч. 50 м.Вид битрейта : ПостоянныйБитрейт : 384 Кбит/секКаналы : 6 каналовРасположение каналов : Front: L C R, Side: L R, LFEЧастота : 48,0 КГцБитовая глубина : 16 битМетод сжатия : С потерямиРазмер потока : 303 Мбайт (22%)Выравнивание : Разделение по промежуткамПродолжительность промежутка : 42 мс. (1,00 видеокадр)Время предзагрузки промежутка : 500 мс.

    Скриншот c названием фильма

    Скриншоты

    Время раздачи - по возможности.
    Скачать .torrent

    Скачать торрент-файл бесплатно и на максимальной скорости!

    Как скачивать? · Что такое торрент? · Рейтинг и ограничения

    !ВНИМАНИЕ!
    Сайт не распространяет и не хранит электронные версии произведений, а занимается лишь лишь предоставлением доступа к создаваемому пользователями каталогу ссылок на торрент-файлы, которые содержат только списки хеш-сумм, убедительная просьба с жалобами обращаться напрямую к пользователю. Файлы для обмена на трекере предоставлены пользователями сайта, и администрация не несёт ответственности за их содержание. Просьба не заливать файлы, защищенные авторскими правами, а также файлы нелегального содержания!


    _________________
    [Профиль] [ЛС]
    Показать сообщения:    
    Ответить на тему

    Текущее время: Сегодня, в 03:06

    Часовой пояс: GMT + 2



    Вы не можете начинать темы
    Вы не можете отвечать на сообщения
    Вы не можете редактировать свои сообщения
    Вы не можете удалять свои сообщения
    Вы не можете голосовать в опросах
    Вы не можете прикреплять файлы к сообщениям
    Вы не можете скачивать файлы