BitTorrentTracker PerecTracker.org
BitTorrentTracker PerecTracker.org
    
Регистрация  ·  Вход
 
 · 
Забыли пароль?

  • Плохая мамочка / Bringing Up Bobby (Фамке Янссен / Famke Janssen) [2011, США, драма, семейный, BDRip] MVO

    Ответить на тему
     
    Автор Сообщение

    Light

    Создавать темы 07-Дек-2015 21:29

           

    [Цитировать]

    Плохая мамочка / Bringing Up Bobby
    Страна: США
    Жанр: драма, семейный
    Год выпуска: 2011
    Продолжительность: 01:35:02
    Перевод: Профессиональный (многоголосый закадровый)
    Cубтитры: нет
    Оригинальная аудиодорожка: нет-Режиссер: Фамке Янссен / Famke Janssen-В ролях: Милла Йовович, Спенсер Лист, Рори Кокрейн, Марсия Кросс, Билл Пуллман, Джастин Холл, Рэй Прюитт, Шелли Фокс, Рената Батиста, Эрик Старки-Описание: Очаровательная и изобретательная мошенница Олив, когда-то эмигрировавшая из СССР в США, пытается порвать с преступным миром ради своего рожденного в Америке сына Бобби. Вместе они переезжают в далекую от городской суеты Оклахому, но прошлое настигает их и там. За некогда совершенное преступление Олив отправляется в тюрьму.К счастью, о Бобби вызывается позаботиться ее новый знакомый - успешный бизнесмен Кент. Казалось бы, все под контролем, но, выйдя из-за решетки, Олив сталкивается с самым тяжелым испытанием в своей жизни, которое ставит будущее ее ребенка под большой вопрос.-Качество видео: BDRip | Исходник
    Формат видео: AVI
    Видео: 704x400 (1.76:1), 23.976 fps, XviD build 50 ~1800 kbps avg, 0.27 bit/pixel
    Аудио: 48 kHz, AC3 Dolby Digital, 3/2 (L,C,R,l,r) + LFE ch, ~384 kbps-Скачать сэмпл | Кинопоиск-

    MediaInfo

    Format                      : AVI
    Format/Info                 : Audio Video Interleave
    File size                   : 1.46 GiB
    Duration                    : 1h 35mn
    Overall bit rate            : 2 194 Kbps
    Writing application         : VirtualDubMod 1.5.10.3 | www.virtualdub-fr.org || (build 2550/release)
    Writing library             : VirtualDubMod build 2550/release
    Video
    ID                          : 0
    Format                      : MPEG-4 Visual
    Format profile              : Advanced Simple@L5
    Format settings, BVOP       : 1
    Format settings, QPel       : No
    Format settings, GMC        : No warppoints
    Format settings, Matrix     : Default (MPEG)
    Codec ID                    : XVID
    Codec ID/Hint               : XviD
    Duration                    : 1h 35mn
    Bit rate                    : 1 801 Kbps
    Width                       : 704 pixels
    Height                      : 400 pixels
    Display aspect ratio        : 16:9
    Frame rate                  : 23.976 fps
    Color space                 : YUV
    Chroma subsampling          : 4:2:0
    Bit depth                   : 8 bits
    Scan type                   : Progressive
    Compression mode            : Lossy
    Bits/(Pixel*Frame)          : 0.267
    Stream size                 : 1.20 GiB (82%)
    Writing library             : XviD 1.2.1 (UTC 2008-12-04)
    Audio
    ID                          : 1
    Format                      : AC-3
    Format/Info                 : Audio Coding 3
    Mode extension              : CM (complete main)
    Format settings, Endianness : Big
    Codec ID                    : 2000
    Duration                    : 1h 35mn
    Bit rate mode               : Constant
    Bit rate                    : 384 Kbps
    Channel(s)                  : 6 channels
    Channel positions           : Front: L C R, Side: L R, LFE
    Sampling rate               : 48.0 KHz
    Compression mode            : Lossy
    Stream size                 : 262 MiB (18%)
    Alignment                   : Split accross interleaves
    Interleave, duration        : 42 ms (1.00 video frame)
    Interleave, preload duratio : 500 ms

    Скриншоты

    Скачать .torrent

    Скачать торрент-файл бесплатно и на максимальной скорости!

    Как скачивать? · Что такое торрент? · Рейтинг и ограничения

    !ВНИМАНИЕ!
    Сайт не распространяет и не хранит электронные версии произведений, а занимается лишь лишь предоставлением доступа к создаваемому пользователями каталогу ссылок на торрент-файлы, которые содержат только списки хеш-сумм, убедительная просьба с жалобами обращаться напрямую к пользователю. Файлы для обмена на трекере предоставлены пользователями сайта, и администрация не несёт ответственности за их содержание. Просьба не заливать файлы, защищенные авторскими правами, а также файлы нелегального содержания!


    _________________
    [Профиль] [ЛС]
    Показать сообщения:    
    Ответить на тему

    Текущее время: Сегодня, в 09:11

    Часовой пояс: GMT + 2



    Вы не можете начинать темы
    Вы не можете отвечать на сообщения
    Вы не можете редактировать свои сообщения
    Вы не можете удалять свои сообщения
    Вы не можете голосовать в опросах
    Вы не можете прикреплять файлы к сообщениям
    Вы не можете скачивать файлы