BitTorrentTracker PerecTracker.org
BitTorrentTracker PerecTracker.org
    
Регистрация  ·  Вход
 
 · 
Забыли пароль?

  • Невинность / Innocence (Хилари Брауэр / Hilary Brougher) [2014, США, Ужасы, фэнтези, триллер, HDRip] DVO

    Ответить на тему
     
    Автор Сообщение

    Light

    Создавать темы 07-Дек-2015 21:29

           

    [Цитировать]

    Невинность / InnocenceСтрана: США
    Жанр: Ужасы, фэнтези, триллер
    Год выпуска: 2014
    Продолжительность: 01:33:51
    Перевод: Любительский (двухголосый закадровый) datynet & Galina Vasyukova;перевод Куценко
    Cубтитры: нет
    Режиссер: Хилари Брауэр / Hilary Brougher
    В ролях: Софи Кертис, Келли Райлли, Грэм Филлипс, Лайнас Роуч, Сара Сазерленд, Стефани Марч, Перри Ривз, Лия Кебеде, Сарита Чоудри, Энни Цянь
    Описание: “Невинность” рассказывает о 14 летней Беккетт, которая до сих пор не отошла от внезапной смерти матери. Сразу же после похорон и с надеждой на новое начало, молодая девушка вместе с отцом Майлзом, переезжает в новую квартиру на Манхэттене и записывается в престижную частную школу. Еще в первый же день в школе, Беккет необъяснимо становится любимицой как учителей, так и директора школы. А самый большой интерес к новенькой проявляется школьной медсестрой Пэм, которая в свою очередь начинает привлекать и внимание Майлза.
    Доп. информация:

    Сэмпл: http://sendfile.su/1180809
    Качество видео: HDRip
    Формат видео: AVI
    Видео: 720x400 (1.80:1), 23.976 fps, XviD MPEG-4 ~1714 kbps avg, 0.25 bit/pixel
    Аудио: 44.100 kHz, MPEG Layer 3, 2 ch, ~256.00 kbps avg

    MediaInfo

    Общее
    Полное имя : K:\Innocence.2014.HDRip.XviD.AC3-PLAYNOW\Innocence.2014.HDRip.avi
    Формат : AVI
    Формат/Информация : Audio Video Interleave
    Размер файла : 1,30 Гбайт
    Продолжительность : 1 ч. 33 м.
    Общий поток : 1980 Кбит/сек
    Библиотека кодирования : VirtualDub build 35576/release
    Видео
    Идентификатор : 0
    Формат : MPEG-4 Visual
    Профиль формата : Advanced Simple@L5
    Параметр BVOP формата : 2
    Параметр QPel формата : Нет
    Параметр GMC формата : Без точки перехода
    Параметр матрицы формата : Default (H.263)
    Режим смешивания : Сжатый битовый поток
    Идентификатор кодека : XVID
    Идентификатор кодека/Подсказка : XviD
    Продолжительность : 1 ч. 33 м.
    Битрейт : 1715 Кбит/сек
    Ширина : 720 пикселей
    Высота : 400 пикселей
    Соотношение сторон : 16:9
    Частота кадров : 23,976 кадра/сек
    Цветовое пространство : YUV
    Субдискретизация насыщенности : 4:2:0
    Битовая глубина : 8 бит
    Тип развёртки : Прогрессивная
    Метод сжатия : С потерями
    Бит/(Пиксели*Кадры) : 0.248
    Размер потока : 1,12 Гбайт (87%)
    Библиотека кодирования : XviD 64
    Аудио
    Идентификатор : 1
    Формат : MPEG Audio
    Версия формата : Version 1
    Профиль формата : Layer 3
    Идентификатор кодека : 55
    Идентификатор кодека/Подсказка : MP3
    Продолжительность : 1 ч. 33 м.
    Вид битрейта : Постоянный
    Битрейт : 256 Кбит/сек
    Каналы : 2 канала
    Частота : 44,1 КГц
    Метод сжатия : С потерями
    Размер потока : 172 Мбайт (13%)
    Выравнивание : Разделение по промежуткам
    Продолжительность промежутка : 42 мс. (1,00 видеокадр)
    Время предзагрузки промежутка : 500 мс.

    Скриншот c названием фильма

    Скриншоты


















    Скачать .torrent

    Скачать торрент-файл бесплатно и на максимальной скорости!

    Как скачивать? · Что такое торрент? · Рейтинг и ограничения

    !ВНИМАНИЕ!
    Сайт не распространяет и не хранит электронные версии произведений, а занимается лишь лишь предоставлением доступа к создаваемому пользователями каталогу ссылок на торрент-файлы, которые содержат только списки хеш-сумм, убедительная просьба с жалобами обращаться напрямую к пользователю. Файлы для обмена на трекере предоставлены пользователями сайта, и администрация не несёт ответственности за их содержание. Просьба не заливать файлы, защищенные авторскими правами, а также файлы нелегального содержания!


    _________________
    [Профиль] [ЛС]
    Показать сообщения:    
    Ответить на тему

    Текущее время: Сегодня, в 06:41

    Часовой пояс: GMT + 2



    Вы не можете начинать темы
    Вы не можете отвечать на сообщения
    Вы не можете редактировать свои сообщения
    Вы не можете удалять свои сообщения
    Вы не можете голосовать в опросах
    Вы не можете прикреплять файлы к сообщениям
    Вы не можете скачивать файлы