BitTorrentTracker PerecTracker.org
BitTorrentTracker PerecTracker.org
    
Регистрация  ·  Вход
 
 · 
Забыли пароль?

  • Счастливчик (Валентин Мишаткин) [1989, драма, DVB]

    Ответить на тему
     
    Автор Сообщение

    Light

    Создавать темы 07-Дек-2015 17:17

           

    [Цитировать]

    Счастливчик
    Жанр: драма
    Год выпуска: 1989
    Продолжительность: 01:24:33
    Режиссёр: Валентин Мишаткин
    В ролях: Ирина Климова, Николай Стоцкий, Евгений Лазарев, Елена Сафонова, Владимир Разумовский, Людмила Карауш, Василий Мищенко, Виктор Надоленко, Яков Овчуков-Суворов, Анатолий Немов, Вадим Померанцев, Вадим Уколов, Федор Валиков, Валерий Величко, Александр Гарин, Сергей Макаров, Юрий Слободенюк, Дарья Фекленко, Анатолий Горбенко, Надежда Бережная, Искандер Газиев, Олег Измайлов, Валентин Мишаткин, Татьяна Паркина, Георгий Рыбаков, Николай Смирнов
    Описание: 23-летний Ваня Нечкин был классным водителем. Промысел он себе придумал рисковый: гробил автомобили. Ну, то есть по договоренности с хозяином уже порядком обветшавшей «тачки» он ее в кюветик аккуратненько опрокидывал. Так мял профессионально, что ни одна бригада слесарей не выправит капот. Хозяину, соответственно, страховка. Ване — навар...
    Доп. информация: Запись потока *.ts со спутника Eutelsat Hot Bird 13B/C/D, 13° в.д., ремукс в *.mpg программой VideoReDo.
    Качество видео: DVB
    Формат видео: MKV
    Видео: 720(1044)x576, 25 fps, (16:9), 25,000 кадров/сек, 4103 Кбит/сек
    Аудио: MPEG Audio, 48,0 КГц, 192 Кбит/сек, 2 канала

    MediaInfo

    Общее
    Уникальный идентификатор : 264357396295255999695059801864195459139 (0xC6E161EF17F158C378AB810D7222C843)
    Полное имя : D:\MPG\СЧАСТЛИВЧИК (1TVRUS).mkv
    Формат : Matroska
    Версия формата : Version 2
    Размер файла : 2,59 Гбайт
    Продолжительность : 1 ч. 24 м.
    Режим общего битрейта : Переменный
    Общий поток : 4382 Кбит/сек
    Программа кодирования : Lavf52.64.2
    Библиотека кодирования : Lavf52.64.2
    Видео
    Идентификатор : 1
    Формат : MPEG Video
    Версия формата : Version 2
    Профиль формата : Main@Main
    Параметр BVOP формата : Нет
    Параметр матрицы формата : Выборочная
    Идентификатор кодека : V_MPEG2
    Идентификатор кодека/Информация : MPEG 1 or 2 Video
    Продолжительность : 1 ч. 24 м.
    Вид битрейта : Переменный
    Битрейт : 4103 Кбит/сек
    Максимальный битрейт : 15,0 Мбит/сек
    Ширина : 720 пикселей
    Высота : 576 пикселей
    Соотношение сторон : 16:9
    Соотношение сторон в оригинале : 16:9
    Режим частоты кадров : Постоянный
    Частота кадров : 25,000 кадров/сек
    Стандарт вещания : PAL
    Цветовое пространство : YUV
    Субдискретизация насыщенности : 4:2:0
    Битовая глубина : 8 бит
    Тип развёртки : Чересстрочная
    Порядок развёртки : Верхнее поле первое
    Метод сжатия : С потерями
    Бит/(Пиксели*Кадры) : 0.396
    Временной код первого кадра : 00:00:00:00
    Оригинал временного кода : Group of pictures header
    Размер потока : 2,42 Гбайт (94%)
    Default : Да
    Forced : Нет
    Аудио
    Идентификатор : 2
    Формат : MPEG Audio
    Версия формата : Version 1
    Профиль формата : Layer 2
    Идентификатор кодека : A_MPEG/L2
    Идентификатор кодека/Подсказка : MP2
    Продолжительность : 1 ч. 24 м.
    Вид битрейта : Постоянный
    Битрейт : 192 Кбит/сек
    Каналы : 2 канала
    Частота : 48,0 КГц
    Метод сжатия : С потерями
    Задержка видео : -1 м. 5 с.
    Размер потока : 116 Мбайт (4%)
    Язык : English
    Default : Да
    Forced : Нет

    Скриншоты

    Скачать .torrent

    Скачать торрент-файл бесплатно и на максимальной скорости!

    Как скачивать? · Что такое торрент? · Рейтинг и ограничения

    !ВНИМАНИЕ!
    Сайт не распространяет и не хранит электронные версии произведений, а занимается лишь лишь предоставлением доступа к создаваемому пользователями каталогу ссылок на торрент-файлы, которые содержат только списки хеш-сумм, убедительная просьба с жалобами обращаться напрямую к пользователю. Файлы для обмена на трекере предоставлены пользователями сайта, и администрация не несёт ответственности за их содержание. Просьба не заливать файлы, защищенные авторскими правами, а также файлы нелегального содержания!


    _________________
    [Профиль] [ЛС]
    Показать сообщения:    
    Ответить на тему

    Текущее время: Сегодня, в 13:40

    Часовой пояс: GMT + 2



    Вы не можете начинать темы
    Вы не можете отвечать на сообщения
    Вы не можете редактировать свои сообщения
    Вы не можете удалять свои сообщения
    Вы не можете голосовать в опросах
    Вы не можете прикреплять файлы к сообщениям
    Вы не можете скачивать файлы