Register  ·  Log in
Forgot password?

  • О любви (Михаил Богин) [1970, мелодрама, DVB, AVC]

    Reply to topic
    Author Message


    Post 07-Dec-2015 01:34



    О любви
    Жанр: мелодрама
    Год выпуска: 1970
    Продолжительность: 01:12:39
    Режиссёр: Михаил Богин
    В ролях: Виктория Фёдорова, Сергей Дрейден, Элеонора Шашкова, Владимир Тихонов, Олег Янковский, Валентин Гафт, Биби Андерсон, Геннадий Мастеров, Станислав Чуркин, Игорь Комаров, Екатерина Богина, Людмила (Мила) Васютинская, Дима Савенков
    Описание: Фильм-размышление о любви. Героиня картины, умная, привлекательная женщина, работает скульптором в Эрмитаже, занимаясь реставрацией в Царскосельском дворце. Вокруг неё много приятных и симпатичных людей. Они ходят на работу, встречаются, здороваются, пьют молоко во время обеда, ходят гулять, ведут разговоры о том, что дворец будет отреставрирован, а их имена никто и знать не будет. Вокруг все любят друг друга, а она всё ждёт любви, ждёт настоящего чувства, отказываясь от случайных встреч и возможного замужества...
    Качество видео: DVB-AVC
    Формат видео: MKV
    Видео: H.264/AVC, 720x576, 4:3, 25.00fps, 2336 Kbps
    Аудио: MP2 2.0, 48 kHz, 192 kbps


    Unique ID : 236383063547010596004874845304246281851 (0xB1D5B8D7D1597DD89789E56BF514A67B)
    Complete name : О любви (1970) (Россия К).mkv
    Format : Matroska
    Format version : Version 4 / Version 2
    File size : 1.31 GiB
    Duration : 1h 12mn
    Overall bit rate : 2 580 Kbps
    Movie name : О любви (1970)
    Encoded date : UTC 2015-12-06 20:08:57
    Writing application : mkvmerge v8.1.0 ('Psychedelic Postcard') 64bit
    Writing library : libebml v1.3.1 + libmatroska v1.4.2
    ID : 1
    Format : AVC
    Format/Info : Advanced Video Codec
    Format profile : High@L3.0
    Format settings, CABAC : Yes
    Format settings, ReFrames : 4 frames
    Format settings, GOP : M=4, N=24
    Codec ID : V_MPEG4/ISO/AVC
    Duration : 1h 12mn
    Bit rate : 2 336 Kbps
    Width : 720 pixels
    Height : 576 pixels
    Display aspect ratio : 4:3
    Original display aspect ratio : 4:3
    Frame rate mode : Constant
    Frame rate : 25.000 fps
    Standard : Component
    Color space : YUV
    Chroma subsampling : 4:2:0
    Bit depth : 8 bits
    Scan type : Interlaced
    Scan order : Top Field First
    Bits/(Pixel*Frame) : 0.225
    Stream size : 1.19 GiB (91%)
    Default : No
    Forced : No
    Color primaries : BT.601 PAL
    Transfer characteristics : BT.470 System B, BT.470 System G
    Matrix coefficients : BT.601
    Color range : Limited
    DURATION : 01:12:39.480000000
    NUMBER_OF_FRAMES : 108987
    NUMBER_OF_BYTES : 1300027720
    _STATISTICS_WRITING_APP : mkvmerge v8.1.0 ('Psychedelic Postcard') 64bit
    _STATISTICS_WRITING_DATE_UTC : 2015-12-06 20:08:57
    ID : 2
    Format : MPEG Audio
    Format version : Version 1
    Format profile : Layer 2
    Codec ID : A_MPEG/L2
    Codec ID/Hint : MP2
    Duration : 1h 12mn
    Bit rate mode : Constant
    Bit rate : 192 Kbps
    Channel(s) : 2 channels
    Sampling rate : 48.0 KHz
    Compression mode : Lossy
    Stream size : 99.8 MiB (7%)
    Language : Russian
    Default : Yes
    Forced : No
    DURATION : 01:12:39.432000000
    NUMBER_OF_FRAMES : 181643
    NUMBER_OF_BYTES : 104626368
    _STATISTICS_WRITING_APP : mkvmerge v8.1.0 ('Psychedelic Postcard') 64bit
    _STATISTICS_WRITING_DATE_UTC : 2015-12-06 20:08:57


    Download .torrent

    Download free and at maximum speed!

    How to Download? · What is a torrent? · Ratings and Limitations

    The site does not extend and does not store electronic(digital) versions of products, and only gives access to a reference catalogue created by users on torrent-files which contain only lists of the hash-sums, the earnest entreaty, with complaints(abuse) to access directly to the user. Files for an exchange on tracker are given by users of a site, and the administration does not bear the responsibility for their maintenance. The request to not fill in the files protected by copyrights, and also files of the illegal maintenance!

    [Profile] [PM]
    Display posts from previous:    
    Reply to topic

    The time now is: Today 23:44

    All times are GMT + 3 Hours

    You cannot post new topics in this forum
    You cannot reply to topics in this forum
    You cannot edit your posts in this forum
    You cannot delete your posts in this forum
    You cannot vote in polls in this forum
    You cannot attach files in this forum
    You cannot download files in this forum