Register  ·  Log in
Forgot password?

  • По секрету всему свету (Роман Просвирнин) [2015, мелодрама, HDTVRip]

    Reply to topic
    Author Message


    Post 07-Dec-2015 01:34



    По секрету всему свету
    Жанр: мелодрама
    Год выпуска: 2015
    Продолжительность: 01:31:20
    Режиссёр: Роман Просвирнин
    В ролях: Глафира Тарханова, Руслан Ягудин, Иван Жидков, Андрей Лейвин, Юрий Лейвин, Анастасия Попова, Виктор Рябов, Галина Стаханова, Мария Сокова, Анна Асташкина, Роман Евдокимов
    Описание: Нюта — настоящая русская женщина. Она работает продавцом в сельском магазине, ведет домашнее хозяйство и воспитывает детей. Муж Семен и брат Санёк благополучно уселись безотказной Нюте на шею, и помощи от них ждать не приходится. Однажды в жизнь героини приходит настоящая беда: после Нютиной смены магазин грабят. Недолго думая, хозяева вешают непомерный долг на Нюту, а муж, испугавшись трудностей, сбегает из дома.. Хватит ли у Нюты сил справиться с горем и найти выход? Может быть, руку помощи неожиданно протянет тот, кто еще вчера казался совсем чужим?..
    Качество видео: HDTVRip
    Формат видео: AVI
    Видео: 720x400 (1.80:1), 25 fps, XviD build 73 ~1942 kbps avg, 0.27 bit/pixel
    Аудио: 48 kHz, AC3 Dolby Digital, 2/0 (L,R) ch, ~192 kbps


    Complete name : K:\По секрету всему свету 2015 HDTVRip.avi
    Format : AVI
    Format/Info : Audio Video Interleave
    File size : 1.37 GiB
    Duration : 1h 31mn
    Overall bit rate : 2 145 Kbps
    Writing application : VirtualDubMod | || (build 2550/release)
    Writing library : VirtualDubMod build 2550/release
    ID : 0
    Format : MPEG-4 Visual
    Format profile : Advanced Simple@L5
    Format settings, BVOP : 1
    Format settings, QPel : No
    Format settings, GMC : No warppoints
    Format settings, Matrix : Custom
    Codec ID : XVID
    Codec ID/Hint : XviD
    Duration : 1h 31mn
    Bit rate : 1 943 Kbps
    Width : 720 pixels
    Height : 400 pixels
    Display aspect ratio : 16:9
    Frame rate : 25.000 fps
    Color space : YUV
    Chroma subsampling : 4:2:0
    Bit depth : 8 bits
    Scan type : Progressive
    Compression mode : Lossy
    Bits/(Pixel*Frame) : 0.270
    Stream size : 1.24 GiB (91%)
    Writing library : XviD 73
    ID : 1
    Format : AC-3
    Format/Info : Audio Coding 3
    Mode extension : CM (complete main)
    Format settings, Endianness : Big
    Codec ID : 2000
    Duration : 1h 31mn
    Bit rate mode : Constant
    Bit rate : 192 Kbps
    Channel count : 2 channels
    Channel positions : Front: L R
    Sampling rate : 48.0 KHz
    Bit depth : 16 bits
    Compression mode : Lossy
    Stream size : 125 MiB (9%)
    Alignment : Split accross interleaves
    Interleave, duration : 40 ms (1.00 video frame)
    Interleave, preload duration : 500 ms

    Скриншот c названием фильма


    Download .torrent

    Download free and at maximum speed!

    How to Download? · What is a torrent? · Ratings and Limitations

    The site does not extend and does not store electronic(digital) versions of products, and only gives access to a reference catalogue created by users on torrent-files which contain only lists of the hash-sums, the earnest entreaty, with complaints(abuse) to access directly to the user. Files for an exchange on tracker are given by users of a site, and the administration does not bear the responsibility for their maintenance. The request to not fill in the files protected by copyrights, and also files of the illegal maintenance!

    [Profile] [PM]
    Display posts from previous:    
    Reply to topic

    The time now is: Today 14:12

    All times are GMT + 3 Hours

    You cannot post new topics in this forum
    You cannot reply to topics in this forum
    You cannot edit your posts in this forum
    You cannot delete your posts in this forum
    You cannot vote in polls in this forum
    You cannot attach files in this forum
    You cannot download files in this forum