BitTorrentTracker PerecTracker.org
BitTorrentTracker PerecTracker.org
    
Регистрация  ·  Вход
 
 · 
Забыли пароль?

  • Простая девчонка (Максим Бриус) [2015, мелодрама, HDTVRip]

    Ответить на тему
     
    Автор Сообщение

    rechyn

    Создавать темы 07-Дек-2015 00:34

           

    [Цитировать]

    Простая девчонка
    Жанр: мелодрама
    Год выпуска: 2015
    Продолжительность: 01:42:24
    Режиссёр: Максим Бриус
    В ролях: Анастасия Стежко, Станислав Эрдлей, Борис Хвошнянский, Александр Абрамович, Светлана Никифорова, Галина Чернобаева, Инна Коляда, Виктор Васильев (II), Ольга Сизова, Светлана Клименко, Константин Задворный
    Описание: Алена Шелестова живет и работает в большом городе. Несмотря на то, что Алена еще очень молода, она занята серьезным делом — пишет кандидатскую по истории стекольного производства, а заодно организует выставку старинных изделий из стекла.
    Однажды, когда Алена едет в родной город навестить отца, она случайно знакомится с Кириллом — типичным представителем «золотой молодежи». Обаятельный и симпатичный молодой человек ведет в газете колонку светской хроники и проводит жизнь в развлечениях, растрачивая деньги своего старшего брата, Ивана Томилина.
    Несмотря на разницу в жизненных приоритетах, между Аленой и Кириллом возникает симпатия. Увлекшись Аленой, Кирилл забывает, что уже обещал жениться на дочери мэра (которая от него без ума). Однако этот брак настолько важен для Ивана Томилина, что тот сам готов приударить за Аленой, лишь бы не лишиться выгодного родства. Иван решает переключить на себя внимание Алены.

    Кинопоиск
    Sample
    Качество видео: HDTVRip
    Формат видео: AVI
    Видео: 720x400 (1.80:1), 25 fps, XviD build 73 ~1713 kbps avg, 0.24 bit/pixel
    Аудио: 48 kHz, AC3 Dolby Digital, 2/0 (L,R) ch, ~192 kbps

    MediaInfo

    General
    Complete name : K:\Простая девчонка 2015 HDTVRip.avi
    Format : AVI
    Format/Info : Audio Video Interleave
    File size : 1.37 GiB
    Duration : 1h 42mn
    Overall bit rate : 1 915 Kbps
    Writing application : VirtualDubMod 1.5.10.3 | www.virtualdub-fr.org || (build 2550/release)
    Writing library : VirtualDubMod build 2550/release
    Video
    ID : 0
    Format : MPEG-4 Visual
    Format profile : Advanced Simple@L5
    Format settings, BVOP : 1
    Format settings, QPel : No
    Format settings, GMC : No warppoints
    Format settings, Matrix : Custom
    Codec ID : XVID
    Codec ID/Hint : XviD
    Duration : 1h 42mn
    Bit rate : 1 714 Kbps
    Width : 720 pixels
    Height : 400 pixels
    Display aspect ratio : 16:9
    Frame rate : 25.000 fps
    Color space : YUV
    Chroma subsampling : 4:2:0
    Bit depth : 8 bits
    Scan type : Progressive
    Compression mode : Lossy
    Bits/(Pixel*Frame) : 0.238
    Stream size : 1.23 GiB (89%)
    Writing library : XviD 73
    Audio
    ID : 1
    Format : AC-3
    Format/Info : Audio Coding 3
    Mode extension : CM (complete main)
    Format settings, Endianness : Big
    Codec ID : 2000
    Duration : 1h 42mn
    Bit rate mode : Constant
    Bit rate : 192 Kbps
    Channel count : 2 channels
    Channel positions : Front: L R
    Sampling rate : 48.0 KHz
    Bit depth : 16 bits
    Compression mode : Lossy
    Stream size : 141 MiB (10%)
    Alignment : Split accross interleaves
    Interleave, duration : 40 ms (1.00 video frame)
    Interleave, preload duration : 500 ms

    Скриншот c названием фильма

    Скриншоты

    Скачать .torrent

    Скачать торрент-файл бесплатно и на максимальной скорости!

    Как скачивать? · Что такое торрент? · Рейтинг и ограничения

    !ВНИМАНИЕ!
    Сайт не распространяет и не хранит электронные версии произведений, а занимается лишь лишь предоставлением доступа к создаваемому пользователями каталогу ссылок на торрент-файлы, которые содержат только списки хеш-сумм, убедительная просьба с жалобами обращаться напрямую к пользователю. Файлы для обмена на трекере предоставлены пользователями сайта, и администрация не несёт ответственности за их содержание. Просьба не заливать файлы, защищенные авторскими правами, а также файлы нелегального содержания!


    _________________
    [Профиль] [ЛС]
    Показать сообщения:    
    Ответить на тему

    Текущее время: Сегодня, в 20:36

    Часовой пояс: GMT + 2



    Вы не можете начинать темы
    Вы не можете отвечать на сообщения
    Вы не можете редактировать свои сообщения
    Вы не можете удалять свои сообщения
    Вы не можете голосовать в опросах
    Вы не можете прикреплять файлы к сообщениям
    Вы не можете скачивать файлы