BitTorrentTracker PerecTracker.org
BitTorrentTracker PerecTracker.org
    
Регистрация  ·  Вход
 
 · 
Забыли пароль?

  • Клемансо / Clemenceau (Оливье Гиньяр / Olivier Guignard) [2012, Франция, биографический, исторический, драма, DVB -> DVD] Original (Fre) + Sub (Rus, Eng, Fre, Deu)

    Ответить на тему
     
    Автор Сообщение

    Light

    Создавать темы 06-Дек-2015 16:09

           

    [Цитировать]

    Клемансо
    Clémenceau-Страна: Франция
    Жанр: биографический, исторический, драма
    Год выпуска: 2012
    Продолжительность: 01:27:09Перевод: Субтитры (перевод М.Кузиной, Éclair Group)
    Cубтитры: русские, английские, французские, немецкие, нидерландские, румынские
    Оригинальная аудиодорожка: французский
    Режиссер: Оливье Гиньяр / Olivier Guignard
    В ролях: Дидье Безак / Didier Bezace (Georges Clemenceau), Монья Шокри / Monia Chokri (Charlotte Beauséjour), Марк Читти / Marc Citti (Georges Mandel), Тьерри Жибо / Thierry Gibault (Mordacq), Грегори Гадебуа / Grégory Gadebois (Georges Wormser), Альбер Дельпи / Albert Delpy (Claude Monet), Жак Боннаффе / Jacques Bonnaffé (Raymond Poincaré), Брюно Флери / Bruno Fleury (Renaudel), Матье Симоне / Mathieu Simonet (Journaliste)
    Описание: Жорж Клемансо (1841-1929) - крупнейший политический деятель буржуазной Франции. Выдвинулся как радикал еще в эпоху Парижской коммуны. В 1890-е годы Клемансо стал популярным благодаря участию в деле Дрейфуса, на защиту которого выступил одновременно с писателем Золя и др. Один из виднейших членов парламента, Клемансо своими энергичными выступлениями против правительства неоднократно вызывал падение кабинета, в связи с чем получил прозвище "низвергателя министерств". С 1902 г. Клемансо участвует в кабинетах то в качестве премьера, то в качестве министра.
    В ноябре 1917 г. – председатель совета министров и одновременно-военный министр, пытался установить в стране диктаторский режим. Активный сторонник интервенции в Россию, поддерживал Колчака и Деникина. Являясь председателем Парижской мирной конференции 1920 г., был главой французской делегации на ней, – один из авторов Версальского мирного договора 1919 г. Добивался установления военно-политической гегемонии Франции в Европе. Потерпев поражение на президентских выборах 1920 г., отошел от активной политической жизни.
    Доп. информация: Hot Bird (13.0°E) TV5MONDE Europe DVB-S

    Качество видео: DVB
    Формат видео: DVD Video
    Видео: MPEG Video 2, 720x576@1024x576 (16:9), 25 fps, ~3220 kbps avg, 0.311 bit/pixel
    Аудио: MPEG Audio 2, 2 ch, 48 kHz, 192 kbps - французский
    Формат субтитров: prerendered (IDX+SUB)

    MediaInfo

    Title: [apreder]Clemenceau(2012)DVBSize: 2.12 Gb ( 2 222 604,00 KBytes ) - DVD-5Enabled regions: 1, 2, 3, 4, 5, 6, 7, 8
    VTS_01 : Play Length: 01:27:09 Video: PAL 16:9 (720x576) VBR, Auto Letterboxed Audio: Francais (MPEG1, 2 ch) Subtitles: Russian English Francais Deutsch Nederlands Romanian
    ОбщееПолное имя : F:\My Torrents 3\[apreder]Clemenceau(2012)DVB\VIDEO_TS\VTS_01_1.VOBФормат : MPEG-PSРазмер файла : 1024 МбайтПродолжительность : 41 м.Режим общего битрейта : ПеременныйОбщий поток : 3481 Кбит/сек
    ВидеоИдентификатор : 224 (0xE0)Формат : MPEG VideoВерсия формата : Version 2Профиль формата : Main@MainПараметр BVOP формата : ДаПараметр матрицы формата : ВыборочнаяПараметр GOP формата : VariableFormat_Settings_PictureStructure : FrameПродолжительность : 41 м.Вид битрейта : ПеременныйБитрейт : 3220 Кбит/секШирина : 720 пикселейВысота : 576 пикселейСоотношение сторон : 16:9Частота кадров : 25,000 кадров/секСтандарт вещания : PALЦветовое пространство : YUVСубдискретизация насыщенности : 4:2:0Битовая глубина : 8 битТип развёртки : ЧересстрочнаяПорядок развёртки : Верхнее поле первоеМетод сжатия : С потерямиБит/(Пиксели*Кадры) : 0.311Временной код первого кадра : 00:00:00:00Оригинал временного кода : Group of pictures headerРазмер потока : 947 Мбайт (92%)
    АудиоИдентификатор : 192 (0xC0)Формат : MPEG AudioВерсия формата : Version 1Профиль формата : Layer 2Режим : Joint stereoРасширение режима : Intensity Stereo + MS StereoПродолжительность : 41 м.Вид битрейта : ПостоянныйБитрейт : 192 Кбит/секКаналы : 2 каналаЧастота : 48,0 КГцМетод сжатия : С потерямиРазмер потока : 56,5 Мбайт (6%)
    Текст #1Идентификатор : 189 (0xBD)-32 (0x20)Формат : RLEФормат/Информация : Run-length encodingРежим смешивания : DVD-VideoПродолжительность : 41 м.Задержка видео : 4 с. 0 мс.
    Текст #2Идентификатор : 189 (0xBD)-33 (0x21)Формат : RLEФормат/Информация : Run-length encodingРежим смешивания : DVD-VideoПродолжительность : 41 м.Задержка видео : 4 с. 160 мс.
    Текст #3Идентификатор : 189 (0xBD)-34 (0x22)Формат : RLEФормат/Информация : Run-length encodingРежим смешивания : DVD-VideoПродолжительность : 40 м.Задержка видео : 8 с. 160 мс.
    Текст #4Идентификатор : 189 (0xBD)-35 (0x23)Формат : RLEФормат/Информация : Run-length encodingРежим смешивания : DVD-VideoПродолжительность : 41 м.Задержка видео : 4 с. 0 мс.
    Текст #5Идентификатор : 189 (0xBD)-36 (0x24)Формат : RLEФормат/Информация : Run-length encodingРежим смешивания : DVD-VideoПродолжительность : 41 м.Задержка видео : 4 с. 0 мс.
    Текст #6Идентификатор : 189 (0xBD)-37 (0x25)Формат : RLEФормат/Информация : Run-length encodingРежим смешивания : DVD-VideoПродолжительность : 40 м.Задержка видео : 5 с. 160 мс.

    Скриншот c названием фильма

    Скриншоты

    Резервные скриншоты


    -[901]
    Скачать .torrent

    Скачать торрент-файл бесплатно и на максимальной скорости!

    Как скачивать? · Что такое торрент? · Рейтинг и ограничения

    !ВНИМАНИЕ!
    Сайт не распространяет и не хранит электронные версии произведений, а занимается лишь лишь предоставлением доступа к создаваемому пользователями каталогу ссылок на торрент-файлы, которые содержат только списки хеш-сумм, убедительная просьба с жалобами обращаться напрямую к пользователю. Файлы для обмена на трекере предоставлены пользователями сайта, и администрация не несёт ответственности за их содержание. Просьба не заливать файлы, защищенные авторскими правами, а также файлы нелегального содержания!


    _________________
    [Профиль] [ЛС]
    Показать сообщения:    
    Ответить на тему

    Текущее время: Сегодня, в 16:27

    Часовой пояс: GMT + 2



    Вы не можете начинать темы
    Вы не можете отвечать на сообщения
    Вы не можете редактировать свои сообщения
    Вы не можете удалять свои сообщения
    Вы не можете голосовать в опросах
    Вы не можете прикреплять файлы к сообщениям
    Вы не можете скачивать файлы