BitTorrentTracker PerecTracker.org
BitTorrentTracker PerecTracker.org
    
Регистрация  ·  Вход
 
 · 
Забыли пароль?

  • Приключения Тигрули / The Tigger Movie (Джан Фалкенштейн / Jun Falkenstein) [2000, США, Япония, семейный, комедия, DVDRip] AVO (Дольский) + Dub

    Ответить на тему
     
    Автор Сообщение

    rechyn

    Создавать темы 05-Дек-2015 23:30

           

    [Цитировать]

    Приключения Тигрули / The Tigger Movie
    Страна: США, Япония
    Жанр: семейный, комедия
    Продолжительность: 01:17:07
    Год выпуска: 2000
    Перевод: Авторский (Дольский)
    Перевод 2: Профессиональный (дублированный)
    Русские субтитры: нет
    Режиссёр: Джан Фалкенштейн/Jun Falkenstein
    Роли озвучивали: Джим Каммингс
    Никита Хопкинс
    Кен Сэнсом
    Джон Фидлер
    Питер Каллен
    Андрэ Стойка
    Кэт Суси
    Том Аттэнборо
    Джон Хёрт
    Джофф Кох
    Описание: Тигра - самый весёлый и прыгучий тигр на свете. Всё, что он хочет - это скакать и веселиться. Тем временем его друзья - Винни Пух, Кролик, Пятачок, Иа-Иа и Кенга - занимаются приготовлениями к зиме. Но озорство Тигры портит все напрочь, и друзья сердятся на него.
    Тигре становится одиноко и он по совету Совы отправляется на поиски своих сородичей. В непростых поисках его поддерживает верный друг Ру...
    Доп. информация: За синхронизацию и работу с видео - спасибо randos2009.
    Исходник аудио и оцифровка - Aflame 300.
    Семпл: http://multi-up.com/1076310
    Качество: DVDRip
    Формат: AVI
    Видео: XVID, 592х336, 23,976 кадра/сек, 1006 Кбит/сек
    Аудио: AC-3, 48,0 КГц, 2 канала, 192 Кбит/сек, русский, одноголососый
    Аудио 2: MPEG Audio, 48,0 КГц, 2 канала, 115 Кбит/сек, русский дубляж
    Аудио 3: MPEG Audio, 48,0 КГц, 2 канала, 116 Кбит/сек, английский
    Субтитры: отсутствуют

    Подробные технические данные

    ОбщееПолное имя : F:\Data Base\The Films\Cartoons\Tigger Movie\Tigger Movie.aviФормат : AVIФормат/Информация : Audio Video InterleaveРазмер файла : 801 МбайтПродолжительность : 1 ч. 17 м.Режим общего битрейта : ПеременныйОбщий поток : 1452 Кбит/секПрограмма кодирования : VirtualDubMod 1.5.4.1 (build 2178/release)Библиотека кодирования : VirtualDubMod build 2178/release
    ВидеоИдентификатор : 0Формат : MPEG-4 VisualПрофиль формата : Advanced Simple@L5Параметр BVOP формата : 1Параметр QPel формата : НетПараметр GMC формата : Без точки переходаПараметр матрицы формата : ВыборочнаяИдентификатор кодека : XVIDИдентификатор кодека/Подсказка : XviDПродолжительность : 1 ч. 17 м.Битрейт : 1006 Кбит/секШирина : 592 пикселяВысота : 336 пикселейСоотношение сторон : 16:9Частота кадров : 23,976 кадра/секЦветовое пространство : YUVСубдискретизация насыщенности : 4:2:0Битовая глубина : 8 битТип развёртки : ПрогрессивнаяМетод сжатия : С потерямиБит/(Пиксели*Кадры) : 0.211Размер потока : 555 Мбайт (69%)Библиотека кодирования : XviD 64
    Аудио #1Идентификатор : 1Формат : AC-3Формат/Информация : Audio Coding 3Расширение режима : CM (complete main)Параметр Endianness формата : BigИдентификатор кодека : 2000Продолжительность : 1 ч. 17 м.Вид битрейта : ПостоянныйБитрейт : 192 Кбит/секКаналы : 2 каналаРасположение каналов : Front: L RЧастота : 48,0 КГцБитовая глубина : 16 битМетод сжатия : С потерямиРазмер потока : 106 Мбайт (13%)Выравнивание : Разделение по промежуткамПродолжительность промежутка : 96 мс. (2,30 видеокадра)Время предзагрузки промежутка : 96 мс.Язык : Russian
    Аудио #2Идентификатор : 2Формат : MPEG AudioВерсия формата : Version 1Профиль формата : Layer 3Режим : Joint stereoРасширение режима : MS StereoИдентификатор кодека : 55Идентификатор кодека/Подсказка : MP3Продолжительность : 1 ч. 17 м.Вид битрейта : ПеременныйБитрейт : 115 Кбит/секНоминальный битрейт : 128 Кбит/секКаналы : 2 каналаЧастота : 48,0 КГцМетод сжатия : С потерямиРазмер потока : 63,3 Мбайт (8%)Выравнивание : Соединение по промежуткамПродолжительность промежутка : 24 мс. (0,58 видеокадр)Время предзагрузки промежутка : 160 мс.Библиотека кодирования : LAME3.98rНастройки программы : -m j -V 4 -q 2 -lowpass 17 --abr 128Язык : Russian
    Аудио #3Идентификатор : 3Формат : MPEG AudioВерсия формата : Version 1Профиль формата : Layer 3Режим : Joint stereoРасширение режима : MS StereoИдентификатор кодека : 55Идентификатор кодека/Подсказка : MP3Продолжительность : 1 ч. 17 м.Вид битрейта : ПеременныйБитрейт : 116 Кбит/секНоминальный битрейт : 128 Кбит/секКаналы : 2 каналаЧастота : 48,0 КГцМетод сжатия : С потерямиРазмер потока : 63,9 Мбайт (8%)Выравнивание : Соединение по промежуткамПродолжительность промежутка : 24 мс. (0,58 видеокадр)Время предзагрузки промежутка : 528 мс.Библиотека кодирования : LAME3.98rНастройки программы : -m j -V 4 -q 2 -lowpass 17 --abr 128Язык : English

    Скриншоты


    Скачать .torrent

    Скачать торрент-файл бесплатно и на максимальной скорости!

    Как скачивать? · Что такое торрент? · Рейтинг и ограничения

    !ВНИМАНИЕ!
    Сайт не распространяет и не хранит электронные версии произведений, а занимается лишь лишь предоставлением доступа к создаваемому пользователями каталогу ссылок на торрент-файлы, которые содержат только списки хеш-сумм, убедительная просьба с жалобами обращаться напрямую к пользователю. Файлы для обмена на трекере предоставлены пользователями сайта, и администрация не несёт ответственности за их содержание. Просьба не заливать файлы, защищенные авторскими правами, а также файлы нелегального содержания!


    _________________
    [Профиль] [ЛС]
    Показать сообщения:    
    Ответить на тему

    Текущее время: Сегодня, в 14:29

    Часовой пояс: GMT + 2



    Вы не можете начинать темы
    Вы не можете отвечать на сообщения
    Вы не можете редактировать свои сообщения
    Вы не можете удалять свои сообщения
    Вы не можете голосовать в опросах
    Вы не можете прикреплять файлы к сообщениям
    Вы не можете скачивать файлы