BitTorrentTracker PerecTracker.org
BitTorrentTracker PerecTracker.org
    
Регистрация  ·  Вход
 
 · 
Забыли пароль?

  • Клуб Винкс: Тайна морской бездны / Winx Club: Il mistero degli abissi (Иджинио Страффи / Iginio Straffi) [2014, Италия, Мультфильм, семейный., HDRip-AVC] Dub

    Ответить на тему
     
    Автор Сообщение

    rechyn

    Создавать темы 05-Дек-2015 23:30

           

    [Цитировать]

    Клуб Винкс: Тайна морской бездны / Winx Club: Il mistero degli abissi
    Страна: Италия
    Жанр: Мультфильм, семейный.
    Продолжительность: 01:22:58
    Год выпуска: 2014
    Перевод: Профессиональный (дублированный)
    Русские субтитры: нет-Режиссёр: Иджинио Страффи / Iginio Straffi-Роли озвучивали: Летиция Чиампа, Перла Либератори, Илария Латини, Джемма Донати, Домитилья Д’амико, Лаура Ленги, Марко Вивио, Алессандра Коромпай, Татьяна Десси, Федерика Де Бортоли-Описание: Трикс вернулись! Они хотят завладеть Императорским Троном, чтобы активировать огромную силу, но случайно будят Политею — злую нимфу, до сих пор проклятую тремя Древними Ведьмами Прородительницами. Она готова заключить сделку с Трикс. Политея рассказывает им о том, что для активации Трона им нужно освободить Тританнуса из Обливиона, но до этого им нужно заполучить жизненную силу Короля. Трикс сразу подумали о Скае, который является королём Эраклиона и к тому же женихом Блум. Ведьмы отправляются в Гардению, где Блум и Скай проводят время вместе.-Релиз от: -Автор релиза: -Семпл: http://multi-up.com/1074406
    Качество: HDRip-AVC
    Формат: MKV
    Видео: AVC, 720x388, 23.976 fps, 1952 Kbps
    Аудио: AC3, 48.0 KHz, 6 ch, 384 Kbps
    Субтитры: отсутствуют

    Подробные технические данные

    General Complete name : Winx.Club.2014.HDRip.AVC.mkv Format : Matroska Format version : Version 4 / Version 2 File size : 1.35 GiB Duration : 1h 22mn Overall bit rate : 2 335 Kbps Movie name : Winx Club 2014 from ExKinoRay Encoded date : UTC 2014-12-30 06:26:41 Writing application : mkvmerge v6.6.0 ('The Edge Of The In Between') built on Dec 1 2013 17:55:00 Writing library : libebml v1.3.0 + libmatroska v1.4.1 Video #1 ID : 1 Format : AVC Format/Info : Advanced Video Codec Format profile : High@L4.1 Format settings, CABAC : Yes Format settings, ReFrames : 9 frames Codec ID : V_MPEG4/ISO/AVC Duration : 1h 22mn Bit rate : 1 952 Kbps Width : 720 pixels Height : 388 pixels Display aspect ratio : 1.85:1 Frame rate mode : Constant Frame rate : 23.976 fps Color space : YUV Chroma subsampling : 4:2:0 Bit depth : 8 bits Scan type : Progressive Bits/(Pixel*Frame) : 0.291 Stream size : 1.10 GiB (82%) Title : Enigma Writing library : x264 core 133 r2334 a3ac64b Encoding settings : cabac=1 / ref=9 / deblock=1:-1:-2 / analyse=0x3:0x113 / me=umh / subme=11 / psy=1 / psy_rd=1.00:0.15 / mixed_ref=1 / me_range=32 / chroma_me=1 / trellis=2 / 8x8dct=1 / cqm=0 / deadzone=21,11 / fast_pskip=0 / chroma_qp_offset=-3 / threads=12 / lookahead_threads=2 / sliced_threads=0 / nr=0 / decimate=0 / interlaced=0 / bluray_compat=0 / constrained_intra=0 / bframes=8 / b_pyramid=2 / b_adapt=2 / b_bias=0 / direct=3 / weightb=1 / open_gop=0 / weightp=2 / keyint=240 / keyint_min=23 / scenecut=40 / intra_refresh=0 / rc=2pass / mbtree=0 / bitrate=1952 / ratetol=1.0 / qcomp=0.60 / qpmin=0 / qpmax=69 / qpstep=4 / cplxblur=20.0 / qblur=0.5 / ip_ratio=1.40 / pb_ratio=1.30 / aq=1:1.00 Language : English Default : Yes Forced : No Color primaries : BT.709 Transfer characteristics : BT.709 Matrix coefficients : BT.709 Color range : Limited Audio #2 ID : 2 Format : AC-3 Format/Info : Audio Coding 3 Mode extension : CM (complete main) Format settings, Endianness : Big Codec ID : A_AC3 Duration : 1h 22mn Bit rate mode : Constant Bit rate : 384 Kbps Channel(s) : 6 channels Channel positions : Front: L C R, Side: L R, LFE Sampling rate : 48.0 KHz Bit depth : 16 bits Compression mode : Lossy Stream size : 228 MiB (16%) Title : Дубляж Language : Russian Default : Yes Forced : Yes

    Скриншоты

    Скачать .torrent

    Скачать торрент-файл бесплатно и на максимальной скорости!

    Как скачивать? · Что такое торрент? · Рейтинг и ограничения

    !ВНИМАНИЕ!
    Сайт не распространяет и не хранит электронные версии произведений, а занимается лишь лишь предоставлением доступа к создаваемому пользователями каталогу ссылок на торрент-файлы, которые содержат только списки хеш-сумм, убедительная просьба с жалобами обращаться напрямую к пользователю. Файлы для обмена на трекере предоставлены пользователями сайта, и администрация не несёт ответственности за их содержание. Просьба не заливать файлы, защищенные авторскими правами, а также файлы нелегального содержания!


    _________________
    [Профиль] [ЛС]
    Показать сообщения:    
    Ответить на тему

    Текущее время: Сегодня, в 20:36

    Часовой пояс: GMT + 2



    Вы не можете начинать темы
    Вы не можете отвечать на сообщения
    Вы не можете редактировать свои сообщения
    Вы не можете удалять свои сообщения
    Вы не можете голосовать в опросах
    Вы не можете прикреплять файлы к сообщениям
    Вы не можете скачивать файлы