BitTorrentTracker PerecTracker.org
BitTorrentTracker PerecTracker.org
    
Регистрация  ·  Вход
 
 · 
Забыли пароль?

  • Плоский мир: Фильм / Flatland: The Movie (Дано Джонсон, Джеффри Трэвис / Dano Johnson, Jeffrey Travis) [2007, США, анимация, короткометражный, экранизация, обучающий, DVDRip] VO (Fatumovich) + Rus, Eng Sub + Original

    Ответить на тему
     
    Автор Сообщение

    rechyn

    Создавать темы 05-Дек-2015 23:30

           

    [Цитировать]

    Плоский мир: Фильм
    Flatland: The Movie
    -Страна: США
    Жанр: анимация, короткометражный, экранизация, обучающий
    Продолжительность: 00:34:47
    Год выпуска: 2007
    Перевод: Одноголосый закадровый - Fatumovich
    Русские субтитры: есть (перевод Fatumovich)
    Режиссёр: Дано Джонсон, Джеффри Трэвис / Dano Johnson, Jeffrey Travis
    Роли озвучивали: Мартин Шин, Кристен Белл, Майкл Йорк, Джо Эстевес, Тони Хейл, Кертис Лючани, Дану Уриб, Гарри Питерс, Ли Эдди, Роберт Мерфи-Описание: Плоский мир, которому посвящен одноименный мультфильм Джеффри Трэвиса и Дано Джонсона, представляет собой двухмерную Вселенную. Обитают здесь геометрические фигуры, среди которых можно встретить треугольники, окружности и квадраты, говорящие голосами Майкла Йорка, Мартина Шина, Кристен Белл и других талантливых актеров.
    В отличии от полнометражки здесь нет политики, оставлена лишь суть математического представления пространства и различные верные идеи, как то: развитие воображение, стремление к знаниям, борьба против порочной системы и т.д.
    Графика в данном варианте гораздо лучше, что будет привлекательно для соответствующего возраста детей и подростков.-Семпл: http://multi-up.com/1074412
    Качество: DVDRip
    Формат: AVI
    Видео: XVID, 640x352, 23.976fps, 1680kbps
    Аудио: MP3, 44.1kHz, stereo, 128kbps - русский
    Аудио 2: MP3, 44.1kHz, stereo, 128kbps - оригинал
    Субтитры: русские, английские

    Подробные технические данные

    ОбщееПолное имя : F:\Flatland - The Movie\Flatland.aviФормат : AVIФормат/Информация : Audio Video InterleaveРазмер файла : 485 МбайтПродолжительность : 34 м.Общий поток : 1950 Кбит/секПрограмма кодирования : VirtualDubMod 1.5.10.2 (build 2540/release)Библиотека кодирования : VirtualDubMod build 2540/release
    ВидеоИдентификатор : 0Формат : MPEG-4 VisualПрофиль формата : Advanced Simple@L5Параметр BVOP формата : 2Параметр QPel формата : НетПараметр GMC формата : Без точки переходаПараметр матрицы формата : Default (H.263)Идентификатор кодека : XVIDИдентификатор кодека/Подсказка : XviDПродолжительность : 34 м.Битрейт : 1680 Кбит/секШирина : 640 пикселейВысота : 352 пикселяСоотношение сторон : 16:9Частота кадров : 23,976 кадра/секЦветовое пространство : YUVСубдискретизация насыщенности : 4:2:0Битовая глубина : 8 битТип развёртки : ПрогрессивнаяМетод сжатия : С потерямиБит/(Пиксели*Кадры) : 0.311Размер потока : 418 Мбайт (86%)Библиотека кодирования : XviD 1.2.1 (UTC 2008-12-04)
    Аудио #1Идентификатор : 1Формат : MPEG AudioВерсия формата : Version 1Профиль формата : Layer 3Режим : Joint stereoИдентификатор кодека : 55Идентификатор кодека/Подсказка : MP3Продолжительность : 34 м.Вид битрейта : ПостоянныйБитрейт : 128 Кбит/секКаналы : 2 каналаЧастота : 44,1 КГцМетод сжатия : С потерямиРазмер потока : 31,8 Мбайт (7%)Выравнивание : Разделение по промежуткамПродолжительность промежутка : 42 мс. (1,00 видеокадр)Время предзагрузки промежутка : 500 мс.
    Аудио #2Идентификатор : 2Формат : MPEG AudioВерсия формата : Version 1Профиль формата : Layer 3Режим : Joint stereoРасширение режима : MS StereoИдентификатор кодека : 55Идентификатор кодека/Подсказка : MP3Продолжительность : 34 м.Вид битрейта : ПостоянныйБитрейт : 128 Кбит/секКаналы : 2 каналаЧастота : 44,1 КГцМетод сжатия : С потерямиРазмер потока : 31,8 Мбайт (7%)Выравнивание : Разделение по промежуткамПродолжительность промежутка : 42 мс. (1,00 видеокадр)Время предзагрузки промежутка : 500 мс.Библиотека кодирования : LAME3.99rНастройки программы : -m j -V 4 -q 2 -lowpass 17 -b 128

    Скриншоты

    Скачать .torrent

    Скачать торрент-файл бесплатно и на максимальной скорости!

    Как скачивать? · Что такое торрент? · Рейтинг и ограничения

    !ВНИМАНИЕ!
    Сайт не распространяет и не хранит электронные версии произведений, а занимается лишь лишь предоставлением доступа к создаваемому пользователями каталогу ссылок на торрент-файлы, которые содержат только списки хеш-сумм, убедительная просьба с жалобами обращаться напрямую к пользователю. Файлы для обмена на трекере предоставлены пользователями сайта, и администрация не несёт ответственности за их содержание. Просьба не заливать файлы, защищенные авторскими правами, а также файлы нелегального содержания!


    _________________
    [Профиль] [ЛС]
    Показать сообщения:    
    Ответить на тему

    Текущее время: Сегодня, в 10:36

    Часовой пояс: GMT + 2



    Вы не можете начинать темы
    Вы не можете отвечать на сообщения
    Вы не можете редактировать свои сообщения
    Вы не можете удалять свои сообщения
    Вы не можете голосовать в опросах
    Вы не можете прикреплять файлы к сообщениям
    Вы не можете скачивать файлы