BitTorrentTracker PerecTracker.org
BitTorrentTracker PerecTracker.org
    
Регистрация  ·  Вход
 
 · 
Забыли пароль?

  • Троянский конь (Валерий Пономарев) [1980, экранизация, сатира, DVB]

    Ответить на тему
     
    Автор Сообщение

    Columb

    Создавать темы 02-Авг-2013 15:38

           

    [Цитировать]

    Троянский конь (2 серии)Жанр: экранизация, сатира
    Год выпуска: 1980
    Продолжительность: 01:03:09 + 00:54:10
    Режиссёр: Валерий Пономарев
    В ролях: Георгий Бурков, Ролан Быков, Елена Санаева, Иван Рыжов, Елена Козлитина, Виктор Ильичёв, Татьяна Ухарова, Леонид Крюк, Тамара Муженко, Галина Орлова (II), Николай Ерёменко (ст.), Валерий Филатов
    Описание: Эта история происходит в окружении веселых «чиполлино», надувных крокодилов и забавных пластмассовых «айболитов» фабрики игрушек. Однажды всеми неуважаемый слесарь-пьяница и дебошир Соловейчик – получает от профсоюза бесплатную путевку в Сочи. В знак благодарности хулиган начинает третировать руководство и весь коллектив. Тогда находятся смельчаки – и его «подвигам» приходит конец.
    Доп. информация: Запись трансляции ТК "Беларусь 24" любезно предоставлена коллегой ItarTass.
    Качество видео: DVB
    Формат видео: MPEG-PS
    Видео:
    1 серия - MPEG2 Video, 720x576 (4:3), 25,000 кадров/сек, 3446 Кбит/сек
    2 серия - MPEG2 Video, 720x576 (4:3), 25,000 кадров/сек, 3407 Кбит/сек
    Аудио: MPEG Audio, 48,0 КГц, 192 Кбит/сек, 2 канала

    MediaInfo

    General
    Complete name : D:\Torrent\Троянский конь\Троянский конь 1 (Belarus TV).mpg
    Format : MPEG-PS
    File size : 1.66 GiB
    Duration : 1h 3mn
    Overall bit rate mode : Variable
    Overall bit rate : 3 762 Kbps
    Video
    ID : 224 (0xE0)
    Format : MPEG Video
    Format version : Version 2
    Format profile : Main@Main
    Format settings, BVOP : Yes
    Format settings, Matrix : Custom
    Format settings, GOP : M=1, N=25
    Duration : 1h 3mn
    Bit rate mode : Variable
    Bit rate : 3 495 Kbps
    Maximum bit rate : 15.0 Mbps
    Width : 720 pixels
    Height : 576 pixels
    Display aspect ratio : 4:3
    Frame rate : 25.000 fps
    Standard : PAL
    Color space : YUV
    Chroma subsampling : 4:2:0
    Bit depth : 8 bits
    Scan type : Interlaced
    Scan order : Top Field First
    Compression mode : Lossy
    Bits/(Pixel*Frame) : 0.337
    Stream size : 1.54 GiB (93%)
    Audio
    ID : 192 (0xC0)
    Format : MPEG Audio
    Format version : Version 1
    Format profile : Layer 2
    Mode : Dual mono
    Duration : 1h 3mn
    Bit rate mode : Constant
    Bit rate : 192 Kbps
    Channel(s) : 2 channels
    Sampling rate : 48.0 KHz
    Compression mode : Lossy
    Stream size : 86.7 MiB (5%)
    General
    Complete name : D:\Torrent\Троянский конь\Троянский конь 2 (Belarus TV).mpg
    Format : MPEG-PS
    File size : 1.39 GiB
    Duration : 54mn 10s
    Overall bit rate mode : Variable
    Overall bit rate : 3 672 Kbps
    Video
    ID : 224 (0xE0)
    Format : MPEG Video
    Format version : Version 2
    Format profile : Main@Main
    Format settings, BVOP : Yes
    Format settings, Matrix : Custom
    Format settings, GOP : M=1, N=26
    Duration : 54mn 10s
    Bit rate mode : Variable
    Bit rate : 3 407 Kbps
    Maximum bit rate : 15.0 Mbps
    Width : 720 pixels
    Height : 576 pixels
    Display aspect ratio : 4:3
    Frame rate : 25.000 fps
    Standard : PAL
    Color space : YUV
    Chroma subsampling : 4:2:0
    Bit depth : 8 bits
    Scan type : Interlaced
    Scan order : Top Field First
    Compression mode : Lossy
    Bits/(Pixel*Frame) : 0.329
    Stream size : 1.29 GiB (93%)
    Audio
    ID : 192 (0xC0)
    Format : MPEG Audio
    Format version : Version 1
    Format profile : Layer 2
    Mode : Dual mono
    Duration : 54mn 10s
    Bit rate mode : Constant
    Bit rate : 192 Kbps
    Channel(s) : 2 channels
    Sampling rate : 48.0 KHz
    Compression mode : Lossy
    Stream size : 74.4 MiB (5%)

    Скриншоты

    Скачать .torrent

    Скачать торрент-файл бесплатно и на максимальной скорости!

    Как скачивать? · Что такое торрент? · Рейтинг и ограничения

    !ВНИМАНИЕ!
    Сайт не распространяет и не хранит электронные версии произведений, а занимается лишь лишь предоставлением доступа к создаваемому пользователями каталогу ссылок на торрент-файлы, которые содержат только списки хеш-сумм, убедительная просьба с жалобами обращаться напрямую к пользователю. Файлы для обмена на трекере предоставлены пользователями сайта, и администрация не несёт ответственности за их содержание. Просьба не заливать файлы, защищенные авторскими правами, а также файлы нелегального содержания!

    [Профиль] [ЛС]
    Показать сообщения:    
    Ответить на тему

    Текущее время: Сегодня, в 14:24

    Часовой пояс: GMT + 2



    Вы не можете начинать темы
    Вы не можете отвечать на сообщения
    Вы не можете редактировать свои сообщения
    Вы не можете удалять свои сообщения
    Вы не можете голосовать в опросах
    Вы не можете прикреплять файлы к сообщениям
    Вы не можете скачивать файлы