BitTorrentTracker PerecTracker.org
BitTorrentTracker PerecTracker.org
    
Регистрация  ·  Вход
 
 · 
Забыли пароль?

  • [ATV3] Дедушка моей мечты (Александр Стриженов) [2014, Россия, Комедия, семейный, WEB-DL, HD (1080p)] Original

    Ответить на тему
     
    Автор Сообщение

    Flirldrerve

    Создавать темы 05-Дек-2015 19:17

           

    [Цитировать]

    Дедушка моей мечты
    -
    6.305 / 10
    -Год выпуска: 2014
    Страна: Россия
    Жанр: Комедия, семейный
    Продолжительность: 01:41:53
    Перевод: Не требуется
    Оригинальная аудиодорожка: Есть
    Cубтитры: Нет
    Режиссёр: Александр Стриженов
    Сценарий: Леонид Якубович, Аркадий Инин, Александр Стриженов
    Продюсер: Леонид Якубович, Александр Стриженов, Елена Лищинская
    Оператор: Михаил Агранович
    Композитор: Владимир Давыденко
    Художник: Максим Фесюн
    В ролях: Николай Добрынин, Екатерина Стриженова, Леонид Якубович, Анна Ардова, Виктор Супрун, Виталий Хаев, Иван Кокорин, Александр Добровинский, Александр Пряников, Грант Палагаев
    Сборы в России: $112 467
    Мировая премьера:
    Премьера (РФ): 16 июля 2015, «Каропрокат»
    Описание: В доме небогатой, но счастливой пары Миши и Маши неожиданно появляется Дед. Он не может объяснить, кто он, и как здесь появился. Ну, не на улицу же его выставлять?! Добросердечные супруги оставляют Деда у себя. И вдруг на семью обрушивается Удача! Просто совпадение, или это Дед стал талисманом прежде невезучей семьи?..-Качество исходника: WEB-DL 1080p (BlueBird)
    Качество: WEB-DL
    Тип: HD (1080p)
    Контейнер: M4V
    Видео: H.264, 1920x804, 2.40:1, 4 412 Kbps, 24.000 fps
    Аудио 1: Русский/Оригинальная дорожка , AAC / 2.0 / 157 Kbps / 48.0 KHz
    Аудио 2: Русский/Оригинальная дорожка , AC-3 / 5.1 / 384 Kbps / 48.0 KHz
    -

    iTunes Meta Tags

    Sort Name: Дедушка моей мечты
    XID: Apple:vendor_id:2014-840248
    contentID: 1060069126
    Copyright: © 2014 Pendulum
    Screenwriters: Леонид Якубович, Аркадий Инин, Александр Стриженов
    Producers: Леонид Якубович, Александр Стриженов, Елена Лищинская
    Director: Александр Стриженов
    Cast: Николай Добрынин, Екатерина Стриженова, Леонид Якубович, Анна Ардова, Виктор Супрун, Виталий Хаев, Иван Кокорин, Александр Добровинский, Александр Пряников, Грант Палагаев
    Studio: Pendulum
    Rating: 134
    Long Description: Гротесковая семейная комедия, поднимающая извечный вопрос о том, насколько мы зависим от материального благополучия, которое внезапно обрушивается на нашу голову.
    Description: Гротесковая семейная комедия, поднимающая извечный вопрос о том, насколько мы зависим от материального благополучия, которое внезапно обрушивается на нашу голову.
    Release Date: 2014-01-01T08:00:00Z
    Genre: Русское кино
    Artist: Александр Стриженов
    Name: Дедушка моей мечты

    MediaInfo

    General
    Complete name : /Users/imac/HandBrake/Dedushka.Mechtu.WEB-DL.1080p.m4v
    Format : MPEG-4
    Codec ID : M4V
    File size : 3.53 GiB
    Duration : 1h 41mn
    Overall bit rate mode : Variable
    Overall bit rate : 4 960 Kbps
    Movie name : Дедушка моей мечты
    Performer : Александр Стриженов
    Director : Александр Стриженов
    Actor : Николай Добрынин / Екатерина Стриженова / Леонид Якубович / Анна Ардова / Виктор Супрун / Виталий Хаев / Иван Кокорин / Александр Добровинский / Александр Пряников / Грант Палагаев
    Screenplay by : Леонид Якубович / Аркадий Инин / Александр Стриженов
    Producer : Леонид Якубович / Александр Стриженов / Елена Лищинская
    Production studio : Pendulum
    Genre : Русское кино
    ContentType : Short Film
    Description : Гротесковая семейная комедия, поднимающая извечный вопрос о том, насколько мы зависим от материального благополучия, которое внезапно обрушивается на нашу голову.
    Recorded date : UTC 2014-01-01 08:00:00
    Encoded date : UTC 2015-12-05 11:48:32
    Tagged date : UTC 2015-12-05 11:50:24
    Copyright : © 2014 Pendulum
    Cover : Yes
    Rating : None
    Title/Sort : Дедушка моей мечты
    LongDescription : Гротесковая семейная комедия, поднимающая извечный вопрос о том, насколько мы зависим от материального благополучия, которое внезапно обрушивается на нашу голову.
    AppleStoreCatalogID : 1060069126
    Vendor : Apple:vendor_id:2014-840248
    ContentRating : ru-movie|12+|200|
    Video #1
    ID : 1
    Format : AVC
    Format/Info : Advanced Video Codec
    Format profile : High@L4
    Format settings, CABAC : Yes
    Format settings, ReFrames : 5 frames
    Codec ID : avc1
    Codec ID/Info : Advanced Video Coding
    Duration : 1h 41mn
    Bit rate : 4 412 Kbps
    Width : 1 920 pixels
    Height : 804 pixels
    Display aspect ratio : 2.40:1
    Frame rate mode : Variable
    Frame rate : 24.000 fps
    Minimum frame rate : 23.810 fps
    Maximum frame rate : 24.390 fps
    Color space : YUV
    Chroma subsampling : 4:2:0
    Bit depth : 8 bits
    Scan type : Progressive
    Bits/(Pixel*Frame) : 0.119
    Stream size : 3.14 GiB (89%)
    Title : Main Program
    Language : Russian
    Encoded date : UTC 2015-12-05 11:48:32
    Tagged date : UTC 2015-12-05 11:49:20
    Color range : Limited
    Color primaries : BT.709
    Transfer characteristics : BT.709
    Matrix coefficients : BT.709
    Video #2
    ID : 5
    Format : JPEG
    Codec ID : jpeg
    Duration : 1h 41mn
    Bit rate mode : Variable
    Bit rate : 956 bps
    Width : 640 pixels
    Height : 268 pixels
    Display aspect ratio : 2.40:1
    Frame rate mode : Variable
    Frame rate : 0.003 fps
    Minimum frame rate : 0.002 fps
    Maximum frame rate : 0.004 fps
    Color space : YUV
    Chroma subsampling : 4:2:0
    Bit depth : 8 bits
    Compression mode : Lossy
    Bits/(Pixel*Frame) : 1.858
    Stream size : 739 KiB (0%)
    Title : Chapter Images
    Language : Russian
    Encoded date : UTC 2015-12-05 11:49:25
    Tagged date : UTC 2015-12-05 11:49:26
    Audio #1
    ID : 2
    Format : AAC
    Format/Info : Advanced Audio Codec
    Format profile : LC
    Codec ID : 40
    Duration : 1h 41mn
    Bit rate mode : Variable
    Bit rate : 157 Kbps
    Maximum bit rate : 244 Kbps
    Channel(s) : 2 channels
    Channel positions : Front: L R
    Sampling rate : 48.0 KHz
    Compression mode : Lossy
    Stream size : 115 MiB (3%)
    Title : Russian Stereo
    Language : Russian
    Encoded date : UTC 2015-12-05 11:48:32
    Tagged date : UTC 2015-12-05 11:48:38
    Audio #2
    ID : 3
    Format : AC-3
    Format/Info : Audio Coding 3
    Mode extension : CM (complete main)
    Format settings, Endianness : Big
    Codec ID : ac-3
    Duration : 1h 41mn
    Bit rate mode : Constant
    Bit rate : 384 Kbps
    Channel(s) : 6 channels
    Channel positions : Front: L C R, Side: L R, LFE
    Sampling rate : 48.0 KHz
    Bit depth : 16 bits
    Compression mode : Lossy
    Stream size : 280 MiB (8%)
    Title : Russian DD 5.1
    Language : Russian
    Encoded date : UTC 2015-12-05 11:48:32
    Tagged date : UTC 2015-12-05 11:48:36
    Menu #1
    00:00:00.000 : Глава 1
    00:05:40.000 : Глава 2
    00:12:20.000 : Глава 3
    00:17:42.000 : Глава 4
    00:22:35.000 : Глава 5
    00:27:24.000 : Глава 6
    00:32:04.000 : Глава 7
    00:36:19.000 : Глава 8
    00:41:14.000 : Глава 9
    00:46:05.000 : Глава 10
    00:52:30.000 : Глава 11
    00:59:11.000 : Глава 12
    01:04:37.000 : Глава 13
    01:09:11.000 : Глава 14
    01:13:43.000 : Глава 15
    01:19:06.000 : Глава 16
    01:25:10.000 : Глава 17
    01:30:34.000 : Глава 18
    01:36:32.000 : Глава 19
    Menu #2
    ID : 4
    Codec ID : text
    Duration : 1h 41mn
    Language : Russian
    Encoded date : UTC 2015-12-05 11:49:20
    Tagged date : UTC 2015-12-05 11:49:20
    00:00:00.000 : Глава 1
    00:05:40.000 : Глава 2
    00:12:20.000 : Глава 3
    00:17:42.000 : Глава 4
    00:22:35.000 : Глава 5
    00:27:24.000 : Глава 6
    00:32:04.000 : Глава 7
    00:36:19.000 : Глава 8
    00:41:14.000 : Глава 9
    00:46:05.000 : Глава 10
    00:52:30.000 : Глава 11
    00:59:11.000 : Глава 12
    01:04:37.000 : Глава 13
    01:09:11.000 : Глава 14
    01:13:43.000 : Глава 15
    01:19:06.000 : Глава 16
    01:25:10.000 : Глава 17
    01:30:34.000 : Глава 18
    01:36:32.000 : Глава 19
    Bit rate mode : VBR

    Скриншоты

    -

    Релиз подготовлен для просмотра на Apple TV, iPad, iPhone, iPod Touch.
    Для просмотра данного релиза на компьютере с ОС Windows рекомендуется использовать VLC media player
    Скачать .torrent

    Скачать торрент-файл бесплатно и на максимальной скорости!

    Как скачивать? · Что такое торрент? · Рейтинг и ограничения

    !ВНИМАНИЕ!
    Сайт не распространяет и не хранит электронные версии произведений, а занимается лишь лишь предоставлением доступа к создаваемому пользователями каталогу ссылок на торрент-файлы, которые содержат только списки хеш-сумм, убедительная просьба с жалобами обращаться напрямую к пользователю. Файлы для обмена на трекере предоставлены пользователями сайта, и администрация не несёт ответственности за их содержание. Просьба не заливать файлы, защищенные авторскими правами, а также файлы нелегального содержания!


    _________________
    [Профиль] [ЛС]
    Показать сообщения:    
    Ответить на тему

    Текущее время: Сегодня, в 04:42

    Часовой пояс: GMT + 2



    Вы не можете начинать темы
    Вы не можете отвечать на сообщения
    Вы не можете редактировать свои сообщения
    Вы не можете удалять свои сообщения
    Вы не можете голосовать в опросах
    Вы не можете прикреплять файлы к сообщениям
    Вы не можете скачивать файлы