BitTorrentTracker PerecTracker.org
BitTorrentTracker PerecTracker.org
    
Регистрация  ·  Вход
 
 · 
Забыли пароль?

  • Мисливець на лисиць / Foxcatcher (Беннетт Міллер) [2014 р., біографічний, драма, спорт, BDRip-AVC] MVO (ААА-sound) Ukr

    Ответить на тему
     
    Автор Сообщение

    older

    Создавать темы 05-Дек-2015 11:15

           

    [Цитировать]

    Мисливець на лисиць / Foxcatcher

    Рік випуску: 2014
    Країна: США
    Кіностудія / кінокомпанія: Annapurna Pictures, Likely Story, Media Rights Capital
    Жанр: біографічний, драма, спорт
    Тривалість: 02:14:26
    Субтитри: відсутні
    Переклад: багатоголосий, закадровий (професійний) - ААА-sound
    Аудіодоріжка: українська-Режисер: Беннетт Міллер
    Сценарій: Е. Макс Фрай, Ден Футтерман
    Продюсер: Ентоні Брегман, Меган Еллісон, Джон Кілікії-Світова прем'єра: 19 травня 2014
    Прем'єра в Україні: 26 лютого 2015, «ArtHouse Traffic»
    Обмеження за віком: 18+- -Актори: Ченнінґ Тейтум, Стів Карелл, Марк Руффало, Сієнна Міллер, Ванесса Редґрейв, Ентоні Майкл Голл, Ґай Бойд Бретт Райс, Джексон Фрейзер, Самара Лі-Сюжет: Мультимільйонер Джон Дюпон запрошує в свій маєток володаря олімпійської золотої медалі з боротьби Марка Шульца для підготовки команди до Олімпійських ігор в Сеулі 1988 року. У надії присвятити всього себе тренуванням, гідно виступити і вийти з тіні свого брата, легендарного борця Дейва Шульца, Марк приймає пропозицію. Але параноїк Дюпон затіває гру з Марком і Дейвом.-Формат: MKV
    Якість: BDRip-AVC
    Відео кодек: H.264
    Відео: 1024x552 (1,85:1), 1348 kbps, 23.976 fps, 0.099 bit/pixel
    Аудіо: AC3, 48 kHz, 2 ch, 192 kbps-Джерело:

    Реліз

    Подяка пану: karvai0 за українську доріжку.
    Переклад: Юлії Когут
    Ролі озвучили: Юрій Ребрик, Дмитро Завадський, Андрій Альохін, Юлія Перенчук, Ірина Грей, Ярослав Чорненький, Олександр Єфімов.-Фільм озвучено: студією ААА-sound у 2015 році, на замовлення компанії Артхаус Трафік.

    MediaInfo

    Общее
    Уникальный идентификатор                 : 182394982196655066262939082891674701012 (0x8937FEEC36FBB708B6A469C0E182CCD4)
    Полное имя                               : \Foxcatcher (2014) BDRip-AVC [ukr] [Hurtom].mkv
    Формат                                   : Matroska
    Версия формата                           : Version 4 / Version 2
    Размер файла                             : 1,45 Гбайт
    Продолжительность                        : 2 ч. 14 м.
    Общий поток                              : 1542 Кбит/сек
    Дата кодирования                         : UTC 2015-04-26 05:24:07
    Программа кодирования                    : mkvmerge v7.6.0 ('Garden of Dreams') 32bit built on Feb  8 2015 12:51:39
    Библиотека кодирования                   : libebml v1.3.1 + libmatroska v1.4.2
    DURATION                                 : 02:14:24.928000000
    NUMBER_OF_FRAMES                         : 252029
    NUMBER_OF_BYTES                          : 193558272
    _STATISTICS_WRITING_APP                  : mkvmerge v7.6.0 ('Garden of Dreams') 32bit built on Feb  8 2015 12:51:39
    _STATISTICS_WRITING_DATE_UTC             : 2015-04-26 05:24:07
    _STATISTICS_TAGS                         : BPS DURATION NUMBER_OF_FRAMES NUMBER_OF_BYTES
    Attachment                               : Yes
    Видео
    Идентификатор                            : 1
    Формат                                   : AVC
    Формат/Информация                        : Advanced Video Codec
    Профиль формата                          : Main@L4.1
    Параметр CABAC формата                   : Да
    Параметр ReFrames формата                : 5 кадров
    Идентификатор кодека                     : V_MPEG4/ISO/AVC
    Продолжительность                        : 2 ч. 14 м.
    Битрейт                                  : 1348 Кбит/сек
    Ширина                                   : 1024 пикселя
    Высота                                   : 552 пикселя
    Соотношение сторон                       : 1,85:1
    Режим частоты кадров                     : Постоянный
    Частота кадров                           : 23,976 кадра/сек
    Цветовое пространство                    : YUV
    Субдискретизация насыщенности            : 4:2:0
    Битовая глубина                          : 8 бит
    Тип развёртки                            : Прогрессивная
    Бит/(Пиксели*Кадры)                      : 0.099
    Размер потока                            : 1,24 Гбайт (86%)
    Заголовок                                : Foxcatcher (2014) BDRip-AVC [ukr] [Hurtom]
    Библиотека кодирования                   : x264 core 142 r2479 dd79a61
    Настройки программы                      : cabac=1 / ref=5 / deblock=1:-1:-1 / analyse=0x1:0x111 / me=umh / subme=8 / psy=1 / psy_rd=1.00:0.15 / mixed_ref=1 / me_range=16 / chroma_me=1 / trellis=1 / 8x8dct=0 / cqm=0 / deadzone=21,11 / fast_pskip=1 / chroma_qp_offset=-3 / threads=12 / lookahead_threads=2 / sliced_threads=0 / nr=0 / decimate=1 / interlaced=0 / bluray_compat=0 / constrained_intra=0 / bframes=3 / b_pyramid=2 / b_adapt=2 / b_bias=0 / direct=3 / weightb=1 / open_gop=0 / weightp=2 / keyint=240 / keyint_min=24 / scenecut=40 / intra_refresh=0 / rc_lookahead=50 / rc=2pass / mbtree=1 / bitrate=1348 / ratetol=1.0 / qcomp=0.60 / qpmin=0 / qpmax=69 / qpstep=4 / cplxblur=20.0 / qblur=0.5 / vbv_maxrate=50000 / vbv_bufsize=62500 / nal_hrd=none / filler=0 / ip_ratio=1.40 / aq=1:1.00
    Default                                  : Да
    Forced                                   : Нет
    Основные цвета                           : BT.709
    Характеристики трансфера                 : BT.709
    Коэффициенты матрицы                     : BT.709
    DURATION                                 : 02:14:26.058000000
    NUMBER_OF_FRAMES                         : 193392
    NUMBER_OF_BYTES                          : 1358719210
    _STATISTICS_WRITING_APP                  : mkvmerge v7.6.0 ('Garden of Dreams') 32bit built on Feb  8 2015 12:51:39
    _STATISTICS_WRITING_DATE_UTC             : 2015-04-26 05:24:07
    _STATISTICS_TAGS                         : BPS DURATION NUMBER_OF_FRAMES NUMBER_OF_BYTES
    Аудио
    Идентификатор                            : 2
    Формат                                   : AC-3
    Формат/Информация                        : Audio Coding 3
    Расширение режима                        : CM (complete main)
    Параметр Endianness формата              : Big
    Идентификатор кодека                     : A_AC3
    Продолжительность                        : 2 ч. 14 м.
    Вид битрейта                             : Постоянный
    Битрейт                                  : 192 Кбит/сек
    Каналы                                   : 2 канала
    Расположение каналов                     : Front: L R
    Частота                                  : 48,0 КГц
    Битовая глубина                          : 16 бит
    Метод сжатия                             : С потерями
    Задержка видео                           : -83 мс.
    Размер потока                            : 185 Мбайт (12%)
    Заголовок                                : UKR
    Язык                                     : Ukrainian
    Default                                  : Да
    Forced                                   : Нет

    Скріншоти

    Скачать .torrent

    Скачать торрент-файл бесплатно и на максимальной скорости!

    Как скачивать? · Что такое торрент? · Рейтинг и ограничения

    !ВНИМАНИЕ!
    Сайт не распространяет и не хранит электронные версии произведений, а занимается лишь лишь предоставлением доступа к создаваемому пользователями каталогу ссылок на торрент-файлы, которые содержат только списки хеш-сумм, убедительная просьба с жалобами обращаться напрямую к пользователю. Файлы для обмена на трекере предоставлены пользователями сайта, и администрация не несёт ответственности за их содержание. Просьба не заливать файлы, защищенные авторскими правами, а также файлы нелегального содержания!


    _________________
    [Профиль] [ЛС]

    -746

    Создавать темы 03-Июн-2016 21:40 (спустя 5 месяцев 29 дней)

           

    Топік був перенесений з форуму Закордонне кіно українською у форум Фільми 2011-2015 українською

    rechyn

    _________________
    Как бы ты высоко не летал, не забывай, с кем ты ползал..
     
    Показать сообщения:    
    Ответить на тему

    Текущее время: Сегодня, в 01:13

    Часовой пояс: GMT + 2



    Вы не можете начинать темы
    Вы не можете отвечать на сообщения
    Вы не можете редактировать свои сообщения
    Вы не можете удалять свои сообщения
    Вы не можете голосовать в опросах
    Вы не можете прикреплять файлы к сообщениям
    Вы не можете скачивать файлы