BitTorrentTracker PerecTracker.org
BitTorrentTracker PerecTracker.org
    
Регистрация  ·  Вход
 
 · 
Забыли пароль?

  • Меггі / Maggie (Генрі Хобсон) [2015 р., драма, трилер, жахи, WEB-DLRip] DVO (UkropStudio) Ukr

    Ответить на тему
     
    Автор Сообщение

    older

    Создавать темы 05-Дек-2015 10:15

           

    [Цитировать]

    Меггі / Maggie

    Рік випуску: 2015
    Країна: США, Швейцарія
    Кіностудія / кінокомпанія: Gold Star Films
    Жанр: драма, трилер, жахи
    Тривалість: 01:35:04
    Субтитри: відсутні
    Переклад: двоголосий, закадровий (аматорський) - UkropStudio & LE-Production
    Аудіодоріжка: українська-Режисер: Генрі Хобсон
    Сценарій: Генрі Хобсон
    Продюсер: Холлі Елісса, Shawn O'Brien, Delany Towne Peace-Світова прем'єра: 1 жовтня 2015
    Обмеження за віком: немає- -Актори: Арнольд Шварцнеггер, Ебігейл Бреслін, Джоелі Річардсон-Сюжет: Історія про дівчинку-підлітка, яка виявляється зараженої в результаті спалаху епідемії і тепер поволі перетворюється на зомбі ...-Формат: AVI
    Якість: WEB-DLRip
    Відео кодек: XviD
    Відео: 720x300 (2,40:1), 2215 kbps, 23.976 fps, 0.428 bit/pixel
    Аудіо: 48 kHz, MPEG Layer 3, 2 ch, 128.00 kbps-Джерело:

    Реліз

    Ріп та звук: UkropStudio & LE-Production
    Ролі озвучують: Олексій Соловйов і Маргарита Щелкунова
    Робота зі звуком: Роман Мирон

    MediaInfo

    Общее
    Полное имя                               : \Maggie.2015.WEB-DLRip.[UkropStudio_&_LE-Production].avi
    Формат                                   : AVI
    Формат/Информация                        : Audio Video Interleave
    Размер файла                             : 1,56 Гбайт
    Продолжительность                        : 1 ч. 35 м.
    Общий поток                              : 2352 Кбит/сек
    Программа кодирования                    : VirtualDubMod 1.5.10.2 (build 2540/release)
    Библиотека кодирования                   : VirtualDubMod build 2540/release
    Видео
    Идентификатор                            : 0
    Формат                                   : MPEG-4 Visual
    Профиль формата                          : Advanced Simple@L5
    Параметр BVOP формата                    : 2
    Параметр QPel формата                    : Нет
    Параметр GMC формата                     : Без точки перехода
    Параметр матрицы формата                 : Default (H.263)
    Режим смешивания                         : Сжатый битовый поток
    Идентификатор кодека                     : XVID
    Идентификатор кодека/Подсказка           : XviD
    Продолжительность                        : 1 ч. 35 м.
    Битрейт                                  : 2215 Кбит/сек
    Ширина                                   : 720 пикселей
    Высота                                   : 300 пикселей
    Соотношение сторон                       : 2,40:1
    Частота кадров                           : 23,976 кадра/сек
    Цветовое пространство                    : YUV
    Субдискретизация насыщенности            : 4:2:0
    Битовая глубина                          : 8 бит
    Тип развёртки                            : Прогрессивная
    Метод сжатия                             : С потерями
    Бит/(Пиксели*Кадры)                      : 0.428
    Размер потока                            : 1,47 Гбайт (94%)
    Библиотека кодирования                   : XviD 66
    Аудио
    Идентификатор                            : 1
    Формат                                   : MPEG Audio
    Версия формата                           : Version 1
    Профиль формата                          : Layer 3
    Режим                                    : Joint stereo
    Расширение режима                        : MS Stereo
    Идентификатор кодека                     : 55
    Идентификатор кодека/Подсказка           : MP3
    Продолжительность                        : 1 ч. 35 м.
    Вид битрейта                             : Постоянный
    Битрейт                                  : 128 Кбит/сек
    Каналы                                   : 2 канала
    Частота                                  : 48,0 КГц
    Метод сжатия                             : С потерями
    Размер потока                            : 87,0 Мбайт (5%)
    Выравнивание                             : Соединение по промежуткам
    Продолжительность промежутка             : 42  мс. (1,00 видеокадр)
    Время предзагрузки промежутка            : 504  мс.

    Скріншоти

    Скачать .torrent

    Скачать торрент-файл бесплатно и на максимальной скорости!

    Как скачивать? · Что такое торрент? · Рейтинг и ограничения

    !ВНИМАНИЕ!
    Сайт не распространяет и не хранит электронные версии произведений, а занимается лишь лишь предоставлением доступа к создаваемому пользователями каталогу ссылок на торрент-файлы, которые содержат только списки хеш-сумм, убедительная просьба с жалобами обращаться напрямую к пользователю. Файлы для обмена на трекере предоставлены пользователями сайта, и администрация не несёт ответственности за их содержание. Просьба не заливать файлы, защищенные авторскими правами, а также файлы нелегального содержания!


    _________________
    [Профиль] [ЛС]
    Показать сообщения:    
    Ответить на тему

    Текущее время: Сегодня, в 01:25

    Часовой пояс: GMT + 2



    Вы не можете начинать темы
    Вы не можете отвечать на сообщения
    Вы не можете редактировать свои сообщения
    Вы не можете удалять свои сообщения
    Вы не можете голосовать в опросах
    Вы не можете прикреплять файлы к сообщениям
    Вы не можете скачивать файлы