BitTorrentTracker PerecTracker.org
BitTorrentTracker PerecTracker.org
    
Регистрация  ·  Вход
 
 · 
Забыли пароль?

  • Капітан Філліпс / Captain Phillips (Пол Ґрінґрасс ) [2013 р., біографічний, драма, пригодницький, трилер, BDRip] DUB (Blu-ray Disc) Ukr + Sub Eng

    Ответить на тему
     
    Автор Сообщение

    older

    Создавать темы 05-Дек-2015 07:23

           

    [Цитировать]

    Капітан Філліпс / Captain Phillips

    Рік випуску: 2013
    Країна: США
    Кіностудія / кінокомпанія: Scott Rudin Productions, Michael De Luca Productions, Trigger Street Productions
    Жанр: біографічний, драма, пригодницький, трилер
    Тривалість: 02:14:04
    Субтитри: українська (форсовані)
    Переклад: дубльований (професійний) - Blu-ray Disc
    Аудіодоріжка: українська-Режисер: Пол Ґрінґрасс
    Сценарій: Біллі Рей, Річард Філліпс, Стефан Телті
    Продюсер: Дена Брунетті, Майкл Де Лука, Скотт Рудін-Світова прем'єра: 27 вересня 2013
    Прем'єра в Україні: 5 грудня 2013, «B&H Film Distribution Company»
    Обмеження за віком: немає- -Актори: Том Генкс, Баркхад Абді, Файсал Ахмед, Майкл Чернус-Сюжет: Фільм розповідає про момент із життя капітана Річарда Філліпса, коли він був узятий в полон сомалійськими піратами в 2009 році під час викрадення судна "Maersk Alabama". Він запропонував себе в якості заручника, щоб увесь інший екіпаж відпустили...-Формат: AVI
    Якість: BDRip
    Відео кодек: XviD
    Відео: 720x304 (2,35:1), 1356 kbps, 23.976 fps, 0.258 bit/pixel
    Аудіо : AC3, 48 kHz, 6 ch, 448 kbps
    Субтитри: українська (форсовані), тип: програмні (м'які), формат: srt-Джерело:

    MediaInfo

    Общее
    Полное имя                               : \Captain Phillips (2013) BDRip [UKR] [Hurtom] by omm\Captain Phillips (2013) BDRip [UKR] [Hurtom] by omm.avi
    Формат                                   : AVI
    Формат/Информация                        : Audio Video Interleave
    Размер файла                             : 1,70 Гбайт
    Продолжительность                        : 2 ч. 14 м.
    Общий поток                              : 1814 Кбит/сек
    Программа кодирования                    : VirtualDubModRus 1.5.10.2 (build 2542/release)
    Библиотека кодирования                   : VirtualDubMod build 2542/release
    Видео
    Идентификатор                            : 0
    Формат                                   : MPEG-4 Visual
    Профиль формата                          : Advanced Simple@L5
    Параметр BVOP формата                    : 1
    Параметр QPel формата                    : Нет
    Параметр GMC формата                     : Без точки перехода
    Параметр матрицы формата                 : Выборочная
    Идентификатор кодека                     : XVID
    Идентификатор кодека/Подсказка           : XviD
    Продолжительность                        : 2 ч. 14 м.
    Битрейт                                  : 1356 Кбит/сек
    Ширина                                   : 720 пикселей
    Высота                                   : 304 пикселя
    Соотношение сторон                       : 2,35:1
    Частота кадров                           : 23,976 кадра/сек
    Цветовое пространство                    : YUV
    Субдискретизация насыщенности            : 4:2:0
    Битовая глубина                          : 8 бит
    Тип развёртки                            : Прогрессивная
    Метод сжатия                             : С потерями
    Бит/(Пиксели*Кадры)                      : 0.258
    Размер потока                            : 1,27 Гбайт (75%)
    Библиотека кодирования                   : XviD 73
    Аудио
    Идентификатор                            : 1
    Формат                                   : AC-3
    Формат/Информация                        : Audio Coding 3
    Расширение режима                        : CM (complete main)
    Параметр Endianness формата              : Big
    Идентификатор кодека                     : 2000
    Продолжительность                        : 2 ч. 14 м.
    Вид битрейта                             : Постоянный
    Битрейт                                  : 448 Кбит/сек
    Каналы                                   : 6 каналов
    Расположение каналов                     : Front: L C R, Side: L R, LFE
    Частота                                  : 48,0 КГц
    Битовая глубина                          : 16 бит
    Метод сжатия                             : С потерями
    Размер потока                            : 430 Мбайт (25%)
    Выравнивание                             : Разделение по промежуткам
    Продолжительность промежутка             : 42  мс. (1,00 видеокадр)
    Время предзагрузки промежутка            : 500  мс.

    Скріншоти

    Скачать .torrent

    Скачать торрент-файл бесплатно и на максимальной скорости!

    Как скачивать? · Что такое торрент? · Рейтинг и ограничения

    !ВНИМАНИЕ!
    Сайт не распространяет и не хранит электронные версии произведений, а занимается лишь лишь предоставлением доступа к создаваемому пользователями каталогу ссылок на торрент-файлы, которые содержат только списки хеш-сумм, убедительная просьба с жалобами обращаться напрямую к пользователю. Файлы для обмена на трекере предоставлены пользователями сайта, и администрация не несёт ответственности за их содержание. Просьба не заливать файлы, защищенные авторскими правами, а также файлы нелегального содержания!


    _________________
    [Профиль] [ЛС]

    -746

    Создавать темы 03-Июн-2016 21:40 (спустя 5 месяцев 29 дней)

           

    Топік був перенесений з форуму Закордонне кіно українською у форум Фільми 2011-2015 українською

    rechyn

    _________________
    Как бы ты высоко не летал, не забывай, с кем ты ползал..
     
    Показать сообщения:    
    Ответить на тему

    Текущее время: Сегодня, в 20:42

    Часовой пояс: GMT + 2



    Вы не можете начинать темы
    Вы не можете отвечать на сообщения
    Вы не можете редактировать свои сообщения
    Вы не можете удалять свои сообщения
    Вы не можете голосовать в опросах
    Вы не можете прикреплять файлы к сообщениям
    Вы не можете скачивать файлы