BitTorrentTracker PerecTracker.org
BitTorrentTracker PerecTracker.org
    
Регистрация  ·  Вход
 
 · 
Забыли пароль?

  • Фокус / Focus (Ґленн Фікарра, Джон Рекуа) [2015 р., комедія, кримінальний, драма, BDRip] DUB (Postmodern) Ukr

    Ответить на тему
     
    Автор Сообщение

    older

    Создавать темы 05-Дек-2015 06:00

           

    [Цитировать]

    Фокус / Focus

    Рік випуску: 2015
    Країна: США, Аргентина
    Кіностудія / кінокомпанія: Kramer & Sigman Films, RatPac-Dune Entertainment, Zaftig Films
    Жанр: комедія, кримінальний, драма
    Тривалість: 01:44:44
    Субтитри: відсутні
    Переклад: дубльований (професійний) - Postmodern
    Аудіодоріжка: українська-Режисер: Ґленн Фікарра, Джон Рекуа
    Сценарій: Ґленн Фікарра, Джон Рекуа
    Продюсер: Деніс Ді Нові, Чарлі Гоголак, Джеффрі Харлі Екер-Світова прем'єра: 25 лютого 2015
    Прем'єра в Україні: 7 травня 2015, «Кіноманія»
    Обмеження за віком: немає- -Актори: Вілл Сміт, Марґо Роббі, Едріен Мартінес, Джералд МакРейні, Родріґо Санторо, Б.Д. Вонґ, Бреннан Браун, Роберт Тейлор, Дотан Бонен, Ґріфф Ферст-Сюжет: Історія про досвідченого шахрая, який закохується в дівчину, що робить перші кроки у сфері нелегального відбирання коштів у громадян. Відносини стають для них проблемою, коли виявляється, що романтика заважає їх нечесному бізнесу.-Формат: AVI
    Якість: BDRip
    Відео кодек: XviD
    Відео: 720x400 (16:9), 1594 kbps, 23.976 fps, 0.231 bit/pixel
    Аудіо: AC3, 48 kHz, 6 ch, 384 kbps-Джерело:

    Реліз

    ДВД придбано за кошт користувачів, зібраний у темі Контент для придбання.
    Подяка пану: Vasua95 за синхронізацію звуку.-Переклад: Сергія Ковальчука
    Режисер дубляжу: Катерина Брайковська
    Звукорежисер: Олександр Мостовенко
    Звукорежисер перезапису: Максим Пономарчук
    Ролі дублювали: Роман Чорний, Катерина Брайковська, Євген Пашин, Іван Розін, Дмитро Завадський, Сергій Солопай.-Фільм дубльовано компанією: Postmodern.

    MediaInfo

    Общее
    Полное имя                               : \Focus (2015) BDRip [ukr] [Hurtom].avi
    Формат                                   : AVI
    Формат/Информация                        : Audio Video Interleave
    Размер файла                             : 1,45 Гбайт
    Продолжительность                        : 1 ч. 44 м.
    Общий поток                              : 1987 Кбит/сек
    Программа кодирования                    : VirtualDubModUkr 1.5.10.2 (build 2542/release)
    Библиотека кодирования                   : VirtualDubMod build 2542/release
    Видео
    Идентификатор                            : 0
    Формат                                   : MPEG-4 Visual
    Профиль формата                          : Advanced Simple@L5
    Параметр BVOP формата                    : 1
    Параметр QPel формата                    : Нет
    Параметр GMC формата                     : Без точки перехода
    Параметр матрицы формата                 : Default (H.263)
    Режим смешивания                         : Сжатый битовый поток
    Идентификатор кодека                     : XVID
    Идентификатор кодека/Подсказка           : XviD
    Продолжительность                        : 1 ч. 44 м.
    Битрейт                                  : 1594 Кбит/сек
    Ширина                                   : 720 пикселей
    Высота                                   : 400 пикселей
    Соотношение сторон                       : 16:9
    Частота кадров                           : 23,976 кадра/сек
    Цветовое пространство                    : YUV
    Субдискретизация насыщенности            : 4:2:0
    Битовая глубина                          : 8 бит
    Тип развёртки                            : Прогрессивная
    Метод сжатия                             : С потерями
    Бит/(Пиксели*Кадры)                      : 0.231
    Размер потока                            : 1,17 Гбайт (80%)
    Библиотека кодирования                   : XviD 1.2.1 (UTC 2008-12-04)
    Аудио
    Идентификатор                            : 1
    Формат                                   : AC-3
    Формат/Информация                        : Audio Coding 3
    Расширение режима                        : CM (complete main)
    Параметр Endianness формата              : Big
    Идентификатор кодека                     : 2000
    Продолжительность                        : 1 ч. 44 м.
    Вид битрейта                             : Постоянный
    Битрейт                                  : 384 Кбит/сек
    Каналы                                   : 6 каналов
    Расположение каналов                     : Front: L C R, Side: L R, LFE
    Частота                                  : 48,0 КГц
    Битовая глубина                          : 16 бит
    Метод сжатия                             : С потерями
    Размер потока                            : 288 Мбайт (19%)
    Выравнивание                             : Разделение по промежуткам
    Продолжительность промежутка             : 42  мс. (1,00 видеокадр)
    Время предзагрузки промежутка            : 500  мс.

    Скріншоти

    Скачать .torrent

    Скачать торрент-файл бесплатно и на максимальной скорости!

    Как скачивать? · Что такое торрент? · Рейтинг и ограничения

    !ВНИМАНИЕ!
    Сайт не распространяет и не хранит электронные версии произведений, а занимается лишь лишь предоставлением доступа к создаваемому пользователями каталогу ссылок на торрент-файлы, которые содержат только списки хеш-сумм, убедительная просьба с жалобами обращаться напрямую к пользователю. Файлы для обмена на трекере предоставлены пользователями сайта, и администрация не несёт ответственности за их содержание. Просьба не заливать файлы, защищенные авторскими правами, а также файлы нелегального содержания!


    _________________
    [Профиль] [ЛС]
    Показать сообщения:    
    Ответить на тему

    Текущее время: Сегодня, в 08:26

    Часовой пояс: GMT + 2



    Вы не можете начинать темы
    Вы не можете отвечать на сообщения
    Вы не можете редактировать свои сообщения
    Вы не можете удалять свои сообщения
    Вы не можете голосовать в опросах
    Вы не можете прикреплять файлы к сообщениям
    Вы не можете скачивать файлы