BitTorrentTracker PerecTracker.org
BitTorrentTracker PerecTracker.org
    
Регистрация  ·  Вход
 
 · 
Забыли пароль?

  • РЭД / Red (Роберт Швентке / Robert Schwentke) [2010, США, боевик, комедия, криминал, BDRip] AVO (Гаврилов) + Original (Eng) + Subs (2*rus,eng)

    Ответить на тему
     
    Автор Сообщение

    -sasha2006

    Создавать темы 02-Авг-2013 14:55

           

    [Цитировать]

    РЭД / RED-Слоган «Бывших агентов не бывает»-Страна: США
    Студия: Summit Entertainment
    Жанр: боевик, комедия, криминал
    Год выпуска: 2010
    Продолжительность: 01:51:09-Перевод: авторский одноголосый (закадровый) Андрей Юрьевич Гаврилов
    Оригинальная аудиодорожка: английский
    Cубтитры: Rus Full (BD+mr_greenwood) + Eng (Full+SDH+Comment) отдельно-Режиссёр: Роберт Швентке / Robert Schwentke
    Продюссер: Лоренцо Ди Бонавентура, Марк Вахрадян, Джэйк Майерс
    Сценарий: Джон Хобер, Эрих Хобер, Уоррен Эллис
    -В ролях: Брюс Уиллис / Bruce Willis, Джон Малкович / John Malkovich, Морган Фриман / Morgan Freeman, Хелен Миррен / Helen Mirren, Мэри-Луиз Паркер / Mary-Louise Parker, Карл Урбан / Karl Urban, Брайан Кокс / Brian Cox, Ричард Дрейфусс / Richard Dreyfuss, Ребекка Пиджон / Rebecca Pidgeon, Крис Оуенс / Chris Owens, Жаклин Флеминг / Jaqueline Fleming, Рэнди Келли / Randy Kelley, Джейсон Джулиано / Jason Giuliano, Алек Рэйми / Alec Rayme, Лоуренс Тернер / Lawrence Turner.-Описание:
    Фрэнк Мозес, экс-агент супергруппы ЦРУ, живет теперь мирной и тихой жизнью. Но прошлое настигает его: как-то утром загадочный киллер пытается лишить его жизни. Опытный Фрэнк, конечно, сумел увернуться от пули, но сразу понял, что дело «табак». Кто же поможет справиться с командой ликвидаторов? Конечно, бывшие напарники: харизматичный Джо Мэтисон и параноик Марвин Боггс. Прекрасный повод тряхнуть стариной!-Бюджет: $ 58 000 000
    Сборы в США: $ 90 380 162
    Премьера в Мире: 14 октября 2010
    Сборы в Мире: + $ 108 626 225 = $ 199 006 387
    Премьера в РФ: 14 октября 2010, «, Парадиз»
    Сборы в РФ: $ 7 540 835
    Релиз на DVD: 27 января 2011, «Парадиз Медиа»
    Pелиз на Blu Ray: 27 января 2011, «Парадиз Медиа»
    PG-13 - Детям до 13 лет просмотр не желателен
    -Rip by ZNG505
    Качество видео: BDRip (Исходник BDRemux)
    Формат файла: AVI-Видео: XviD, 720x304 (2.35:1), 23.976 fps, 1898 kbps avg, 0.362 bit/pixel
    Аудио 1: 48 kHz, AC3 Dolby Digital, 3/2 (L,C,R,l,r) + LFE ch, 448 kbps avg (Rus AVO Гаврилов)
    Аудио 2: 48 kHz, AC3 Dolby Digital, 3/2 (L,C,R,l,r) + LFE ch, 448 kbps avg (Original Eng)
    Формат субтитров: softsub (SRT)-

    MediaInfo

    Общее
    Полное имя : D:\Torrent Rutracker\Red.2010.AVO.ENG.XviD.AC3.BDRip._by.ZNG505\Red.2010.AVO.ENG.XviD.AC3.BDRip.avi
    Формат : AVI
    Формат/Информация : Audio Video Interleave
    Профиль формата : OpenDML
    Размер файла : 2,18 Гбайт
    Продолжительность : 1 ч. 51 м.
    Общий поток : 2812 Кбит/сек
    Программа кодирования : VirtualDubModRus 1.5.10.2 (build 2542/release)
    Библиотека кодирования : VirtualDubMod build 2542/release
    Видео
    Идентификатор : 0
    Формат : MPEG-4 Visual
    Профиль формата : Advanced Simple@L5
    Параметр BVOP формата : 2
    Параметр QPel формата : Нет
    Параметр GMC формата : Без точки перехода
    Параметр матрицы формата : Выборочная
    Идентификатор кодека : XVID
    Идентификатор кодека/Подсказка : XviD
    Продолжительность : 1 ч. 51 м.
    Битрейт : 1898 Кбит/сек
    Ширина : 720 пикселей
    Высота : 304 пикселя
    Соотношение сторон : 2,35:1
    Частота кадров : 23,976 кадра/сек
    Цветовое пространство : YUV
    Субдискретизация насыщенности : 4:2:0
    Битовая глубина : 8 бит
    Тип развёртки : Прогрессивная
    Метод сжатия : С потерями
    Бит/(Пиксели*Кадры) : 0.362
    Размер потока : 1,47 Гбайт (67%)
    Библиотека кодирования : XviD 65
    Аудио #1
    Идентификатор : 1
    Формат : AC-3
    Формат/Информация : Audio Coding 3
    Расширение режима : CM (complete main)
    Идентификатор кодека : 2000
    Продолжительность : 1 ч. 51 м.
    Вид битрейта : Постоянный
    Битрейт : 448 Кбит/сек
    Каналы : 6 каналов
    Расположение каналов : Front: L C R, Side: L R, LFE
    Частота : 48,0 КГц
    Битовая глубина : 16 бит
    Метод сжатия : С потерями
    Размер потока : 356 Мбайт (16%)
    Выравнивание : Разделение по промежуткам
    Продолжительность промежутка : 42 мс. (1,00 видеокадр)
    Время предзагрузки промежутка : 500 мс.
    Заголовок : Rus AVO Гаврилов
    Аудио #2
    Идентификатор : 2
    Формат : AC-3
    Формат/Информация : Audio Coding 3
    Расширение режима : CM (complete main)
    Идентификатор кодека : 2000
    Продолжительность : 1 ч. 51 м.
    Вид битрейта : Постоянный
    Битрейт : 448 Кбит/сек
    Каналы : 6 каналов
    Расположение каналов : Front: L C R, Side: L R, LFE
    Частота : 48,0 КГц
    Битовая глубина : 16 бит
    Метод сжатия : С потерями
    Размер потока : 356 Мбайт (16%)
    Выравнивание : Разделение по промежуткам
    Продолжительность промежутка : 42 мс. (1,00 видеокадр)
    Время предзагрузки промежутка : 500 мс.
    Заголовок : Eng Original

    Скриншоты

    Скачать .torrent

    Скачать торрент-файл бесплатно и на максимальной скорости!

    Как скачивать? · Что такое торрент? · Рейтинг и ограничения

    !ВНИМАНИЕ!
    Сайт не распространяет и не хранит электронные версии произведений, а занимается лишь лишь предоставлением доступа к создаваемому пользователями каталогу ссылок на торрент-файлы, которые содержат только списки хеш-сумм, убедительная просьба с жалобами обращаться напрямую к пользователю. Файлы для обмена на трекере предоставлены пользователями сайта, и администрация не несёт ответственности за их содержание. Просьба не заливать файлы, защищенные авторскими правами, а также файлы нелегального содержания!


    _________________

    ░▒▓█▀▄▀▄▀▄█▓▒░
    [Профиль] [ЛС]
    Показать сообщения:    
    Ответить на тему

    Текущее время: Сегодня, в 18:35

    Часовой пояс: GMT + 2



    Вы не можете начинать темы
    Вы не можете отвечать на сообщения
    Вы не можете редактировать свои сообщения
    Вы не можете удалять свои сообщения
    Вы не можете голосовать в опросах
    Вы не можете прикреплять файлы к сообщениям
    Вы не можете скачивать файлы