Register  ·  Log in
Forgot password?

  • Шестой элемент / 2001: A Space Travesty (Аллан А. Голдштейн / Allan A. Goldstein) [2000, Канада, Германия, фантастика, комедия, пародия, DVDRip] Dub + Sub Rus

    Reply to topic
    Author Message


    Post 02-Aug-2013 15:54



    Шестой элемент / 2001: A Space Travesty
    Страна: Канада, Германия
    Жанр: фантастика, комедия, пародия
    Год выпуска: 2000
    Продолжительность: 01:34:02
    Перевод: Профессиональный (дублированный)
    Cубтитры: русские
    Режиссер: Аллан А. Голдштейн / Allan A. Goldstein
    В ролях: Лесли Нильсен, Офелия Винтер, Эцио Греджо, Питер Иган, Александра Кэмп-Гроеневельд, Дэмиен Массон, Пьер Эдвардс, Дэвид Фокс, Сэм Стоун, Верона Пут...
    Описание: Полицейский пристав Дикс получает очередное задание, целью которого является ни много ни мало — спасение всей Земли. Дело в том, что его начальство подозревает, что на данный момент в кресле президента сидит не он сам, а его клон, и дабы прозондировать почву относительного этого вопроса, засылает Дикса на Луну.
    Судя повсему, именно там и базируется эта самая клонирующая фабрика, намеревающаяся в скором времени наводнить всю Землю клонами известных личностей.
    Качество видео: DVDRip
    Формат видео: AVI
    Видео: 704x528 (1.33:1), 25 fps, XviD MPEG-4 ~1814 kbps avg, 0.20 bit/pixel
    Аудио: 48 kHz, AC3 Dolby Digital, 3/2 (L,C,R,l,r) + LFE ch, ~384 kbps
    Формат субтитров: softsub (SRT)


    Complete name : D:\2001 A Space Travesty\2001 A Space Travesty.avi
    Format : AVI
    Format/Info : Audio Video Interleave
    File size : 1.45 GiB
    Duration : 1h 34mn
    Overall bit rate : 2 208 Kbps
    Writing application : VirtualDubMod (build 2550/release)
    Writing library : VirtualDubMod build 2550/release
    ID : 0
    Format : MPEG-4 Visual
    Format profile : Advanced Simple@L5
    Format settings, BVOP : 2
    Format settings, QPel : No
    Format settings, GMC : No warppoints
    Format settings, Matrix : Default (MPEG)
    Codec ID : XVID
    Codec ID/Hint : XviD
    Duration : 1h 34mn
    Bit rate : 1 815 Kbps
    Width : 704 pixels
    Height : 528 pixels
    Display aspect ratio : 4:3
    Frame rate : 25.000 fps
    Color space : YUV
    Chroma subsampling : 4:2:0
    Bit depth : 8 bits
    Scan type : Progressive
    Compression mode : Lossy
    Bits/(Pixel*Frame) : 0.195
    Stream size : 1.19 GiB (82%)
    Writing library : XviD 65
    ID : 1
    Format : AC-3
    Format/Info : Audio Coding 3
    Mode extension : CM (complete main)
    Format settings, Endianness : Big
    Codec ID : 2000
    Duration : 1h 33mn
    Bit rate mode : Constant
    Bit rate : 384 Kbps
    Channel(s) : 6 channels
    Channel positions : Front: L C R, Side: L R, LFE
    Sampling rate : 48.0 KHz
    Bit depth : 16 bits
    Compression mode : Lossy
    Stream size : 258 MiB (17%)
    Alignment : Split accross interleaves
    Interleave, duration : 40 ms (1.00 video frame)
    Interleave, preload duration : 500 ms


    Download .torrent

    Download free and at maximum speed!

    How to Download? · What is a torrent? · Ratings and Limitations

    The site does not extend and does not store electronic(digital) versions of products, and only gives access to a reference catalogue created by users on torrent-files which contain only lists of the hash-sums, the earnest entreaty, with complaints(abuse) to access directly to the user. Files for an exchange on tracker are given by users of a site, and the administration does not bear the responsibility for their maintenance. The request to not fill in the files protected by copyrights, and also files of the illegal maintenance!

    [Profile] [PM]
    Display posts from previous:    
    Reply to topic

    The time now is: Today 23:23

    All times are GMT + 3 Hours

    You cannot post new topics in this forum
    You cannot reply to topics in this forum
    You cannot edit your posts in this forum
    You cannot delete your posts in this forum
    You cannot vote in polls in this forum
    You cannot attach files in this forum
    You cannot download files in this forum