BitTorrentTracker PerecTracker.org
BitTorrentTracker PerecTracker.org
    
Регистрация  ·  Вход
 
 · 
Забыли пароль?

  • Шукач води / The Water Diviner (Рассел Кроу) [2014 р., драма, військовий, BDRip-AVC] DUB (Line In) Ukr

    Ответить на тему
     
    Автор Сообщение

    older

    Создавать темы 04-Дек-2015 15:45

           

    [Цитировать]

    Шукач води / The Water Diviner

    Рік випуску: 2014
    Країна: Австралія, Туреччина, США
    Кіностудія / кінокомпанія: Fear of God Films, Hopscotch Features, RatPac Entertainment
    Жанр: драма, військовий
    Тривалість: 01:51:10
    Субтитри: відсутні
    Переклад: дубльований (професійний) - Line In
    Аудіодоріжка: українська-Режисер: Рассел Кроу
    Сценарій: Ендрю Найт, Ендрю Анастасіос
    Продюсер: Трой Льюм, Ендрю Мейсон, Кіт Роджер-Світова прем'єра: 11 грудня 2014
    Прем'єра в Україні: 9 квітня 2015, «Мульті Медіа Дистрибушн»
    Обмеження за віком: неиає- -Актори: Рассел Кроу, Джей Кортні, Ольга Куриленко, Ізабель Лукас, Деймон Герріман, Жаклін МакКензі, Сем Їлмаз-Сюжет: Фільм, що переносить глядача у 1919 рік. Батько відправляється у Туреччину, щоб відшукати своїх синів, що зникли під час битви при Галліполі. Головний герой втрачає надію, але згодом вона непередбачувано повертається до нього...-Формат: MKV
    Якість: BDRip-AVC
    Відео кодек: XviD
    Відео: 1024x426 (2,40:1), 1684 kbps, 24,000 fps, 0.161 bit/pixel
    Аудіо: AC3, 48 kHz, 2 ch, 192 kbps-Джерело:

    Реліз

    Подяка пану: patriot2305, за українську доріжку.

    MediaInfo

    Общее
    Уникальный идентификатор                 : 176745500233114575720159612612047518341 (0x84F7F1F4EC1302ACBC222968DF63BA85)
    Полное имя                               : \The Water Diviner (2014) BDRip-AVC [ukr] [Hurtom].mkv
    Формат                                   : Matroska
    Версия формата                           : Version 4 / Version 2
    Размер файла                             : 1,46 Гбайт
    Продолжительность                        : 1 ч. 51 м.
    Общий поток                              : 1878 Кбит/сек
    Дата кодирования                         : UTC 2015-04-21 18:58:43
    Программа кодирования                    : mkvmerge v7.6.0 ('Garden of Dreams') 32bit built on Feb  8 2015 12:51:39
    Библиотека кодирования                   : libebml v1.3.1 + libmatroska v1.4.2
    DURATION                                 : 01:51:10.368000000
    NUMBER_OF_FRAMES                         : 208449
    NUMBER_OF_BYTES                          : 160088832
    _STATISTICS_WRITING_APP                  : mkvmerge v7.6.0 ('Garden of Dreams') 32bit built on Feb  8 2015 12:51:39
    _STATISTICS_WRITING_DATE_UTC             : 2015-04-21 18:58:43
    _STATISTICS_TAGS                         : BPS DURATION NUMBER_OF_FRAMES NUMBER_OF_BYTES
    Attachment                               : Yes
    Видео
    Идентификатор                            : 1
    Формат                                   : AVC
    Формат/Информация                        : Advanced Video Codec
    Профиль формата                          : High@L4.1
    Параметр CABAC формата                   : Да
    Параметр ReFrames формата                : 9 кадров
    Идентификатор кодека                     : V_MPEG4/ISO/AVC
    Продолжительность                        : 1 ч. 51 м.
    Битрейт                                  : 1684 Кбит/сек
    Ширина                                   : 1024 пикселя
    Высота                                   : 426 пикселей
    Соотношение сторон                       : 2,40:1
    Режим частоты кадров                     : Постоянный
    Частота кадров                           : 24,000 кадра/сек
    Цветовое пространство                    : YUV
    Субдискретизация насыщенности            : 4:2:0
    Битовая глубина                          : 8 бит
    Тип развёртки                            : Прогрессивная
    Бит/(Пиксели*Кадры)                      : 0.161
    Размер потока                            : 1,28 Гбайт (88%)
    Заголовок                                : The Water Diviner (2014) BDRip-AVC [ukr] [Hurtom]
    Библиотека кодирования                   : x264 core 130 r2273 b3065e6
    Настройки программы                      : cabac=1 / ref=9 / deblock=1:-3:-3 / analyse=0x3:0x113 / me=umh / subme=10 / psy=1 / psy_rd=1.00:0.15 / mixed_ref=1 / me_range=32 / chroma_me=1 / trellis=2 / 8x8dct=1 / cqm=0 / deadzone=21,11 / fast_pskip=1 / chroma_qp_offset=-3 / threads=6 / lookahead_threads=1 / sliced_threads=0 / nr=0 / decimate=0 / interlaced=0 / bluray_compat=0 / constrained_intra=0 / bframes=9 / b_pyramid=2 / b_adapt=2 / b_bias=0 / direct=3 / weightb=1 / open_gop=0 / weightp=2 / keyint=240 / keyint_min=23 / scenecut=40 / intra_refresh=0 / rc=2pass / mbtree=0 / bitrate=1684 / ratetol=1.0 / qcomp=0.60 / qpmin=0 / qpmax=69 / qpstep=4 / cplxblur=20.0 / qblur=0.5 / ip_ratio=1.40 / pb_ratio=1.30 / aq=1:1.00
    Default                                  : Да
    Forced                                   : Нет
    Аудио
    Идентификатор                            : 2
    Формат                                   : AC-3
    Формат/Информация                        : Audio Coding 3
    Расширение режима                        : CM (complete main)
    Параметр Endianness формата              : Big
    Идентификатор кодека                     : A_AC3
    Продолжительность                        : 1 ч. 51 м.
    Вид битрейта                             : Постоянный
    Битрейт                                  : 192 Кбит/сек
    Каналы                                   : 2 канала
    Расположение каналов                     : Front: L R
    Частота                                  : 48,0 КГц
    Битовая глубина                          : 16 бит
    Метод сжатия                             : С потерями
    Размер потока                            : 153 Мбайт (10%)
    Заголовок                                : Line
    Язык                                     : Ukrainian
    Default                                  : Да
    Forced                                   : Нет

    Скріншоти

    Скачать .torrent

    Скачать торрент-файл бесплатно и на максимальной скорости!

    Как скачивать? · Что такое торрент? · Рейтинг и ограничения

    !ВНИМАНИЕ!
    Сайт не распространяет и не хранит электронные версии произведений, а занимается лишь лишь предоставлением доступа к создаваемому пользователями каталогу ссылок на торрент-файлы, которые содержат только списки хеш-сумм, убедительная просьба с жалобами обращаться напрямую к пользователю. Файлы для обмена на трекере предоставлены пользователями сайта, и администрация не несёт ответственности за их содержание. Просьба не заливать файлы, защищенные авторскими правами, а также файлы нелегального содержания!


    _________________
    [Профиль] [ЛС]

    -746

    Создавать темы 03-Июн-2016 21:40 (спустя 5 месяцев 30 дней)

           

    Топік був перенесений з форуму Закордонне кіно українською у форум Фільми 2011-2015 українською

    rechyn

    _________________
    Как бы ты высоко не летал, не забывай, с кем ты ползал..
     
    Показать сообщения:    
    Ответить на тему

    Текущее время: Сегодня, в 18:00

    Часовой пояс: GMT + 2



    Вы не можете начинать темы
    Вы не можете отвечать на сообщения
    Вы не можете редактировать свои сообщения
    Вы не можете удалять свои сообщения
    Вы не можете голосовать в опросах
    Вы не можете прикреплять файлы к сообщениям
    Вы не можете скачивать файлы