BitTorrentTracker PerecTracker.org
BitTorrentTracker PerecTracker.org
    
Регистрация  ·  Вход
 
 · 
Забыли пароль?

  • Дика / Wild (Жан-Марк Валле) [2014 р., драма, біографічний, BDRip] MVO (Цікава ідея) Ukr

    Ответить на тему
     
    Автор Сообщение

    older

    Создавать темы 04-Дек-2015 14:01

           

    [Цитировать]

    Дика / Wild

    Рік випуску: 2014
    Країна: США
    Кіностудія / кінокомпанія: Fox Searchlight Pictures, Pacific Standard
    Жанр: драма, біографічний
    Тривалість: 01:55:36
    Субтитри: відсутні
    Переклад: багатоголосий, закадровий (професійний) - Цікава ідея, на замовлення HURTOM.COM
    Аудіодоріжка: українська-Режисер: Жан-Марк Валле
    Сценарій: Нік Хорнбі, Шеріл Стрейд
    Продюсер: Бруна Папандреу, Вільям Полад, Різ Уізерспун-Світова прем'єра: 29 серпня 2014
    Обмеження за віком: немає- -Актори: Різ Візерспун, Лора Дерн, Томас Садоскі, Мішель Гусман, Вільям Ерл Браун-Сюжет: Стрічка розповідає про Шеріл Стрейд, що пішки пройшла 1100 миль заради того, щоб одужати від наслідків катастрофи.-Формат: AVI
    Якість: BDRip
    Відео кодек: XviD
    Відео: 720x304 (2,35:1), 1341 kbps, 23.976 fps, 0.255 bit/pixel
    Аудіо: AC3, 48 kHz, 6 ch, 448 kbps-Джерело:

    Реліз

    Дякуємо користувачам, що фінансово допомогли проекту:
    bratkom, accidentmeeting, AiD, ajax_10, alexandor, and2003, Andew & Cats Family, ARcaeth, asu, asu, Aussie, Aussie, bambulla, bilyi, blagodiynyi veloprokat, casper101, casper101, chaka910, chudnoy, Daneo, Dars, deneb333, Denys Zabila, Dim-ON, dimon387, durnolyap, Endy, fleoring, forest17, galychanka, Genek, georgkys, georgkys, GERELEY, germaninthetown, GL-Lviv, Golota, gudtar, Gxost, hiza, igor911, ihor72, iurii_baiurak, iv_o, jandrus, jd_alex, jenice, Jerry, Johnson UA, JOKER20, Klen-Yavir, kmg_lv, korzhuk, kosmo.ua, kucher, Ladybird0879, Leksyk, leonidovod, leroykendall, lmn, lutsko_k, makstur, MasterYura, Maters, mega_babak, Mi parolas Esperanton, midmid, Mikola_sat, mishakovalyk, MisterIf, MisterR, Mitya_GUNNER, mukola773377, nalgi72, naventaar, NemoInFire, nemos, ninelt, NoobFromUA, Nyurko, o_chub, oleksa.b, olekss22, olgak58, Oliko, Olkos, ortt11, pai1ripe, patlatyj1000, pesko, petrokhm, Plague, pohidna, porfavor, pushebx, Puzl, qa1000, respect14, rflh, RJSnaiper, roman81, romantomchak, RST, rybanok27, Ryoga-san, sables, Sehrg, Sehrg-Gut, Sehrg-Gut, Seivo, shulbert, shulbert, sigito, slava_ukraine, slko, smindmax, steeple, StiN, strah, strategic, stwnik, sunshadow, Svarg, Svitlana, swinomatka, Tantras, tarasidze, tarpyt, timoha, turba, UkrFalcon, ukrparaxod, ulyana, urshula, vasuliv15, veles80, veto, VicOd, victor.iskruk, vifilo, ViKoz, Vit2008, vovandir, vovchyck, Vurrek, Wivern, Wivern, wolesj, www2702, xbxb, xfsthe, yan4ous, yarik_ratnik, yavva, Yelovbasted, yr, yura_3d, yuretsua, Yuriy88, Yuronn1, zaika, ZiC, ZNM07, zon, козак сергій, наталя72, Ющук, Янко Гортало
    Також дякуємо користувачам, що надали фінансову допомогу, але побажали бути анонімними

    MediaInfo

    Общее
    Полное имя                               : \Wild (2014) [ukr] BDRip [Hurtom].avi
    Формат                                   : AVI
    Формат/Информация                        : Audio Video Interleave
    Размер файла                             : 1,45 Гбайт
    Продолжительность                        : 1 ч. 55 м.
    Общий поток                              : 1798 Кбит/сек
    Название фильма                          : Дика / Wild (2014) [Hurtom]
    Режиссёр                                 : hurtom.com
    Тема                                     : Озвучено на замовлення hurtom.com
    Программа кодирования                    : VirtualDubMod 1.5.10.2 (build 2540/release)
    Примечание                               : Особлива подяка: AiD, ajax_10, and2003, Andew & Cats Family, ARcaeth, asu, asu, Aussie, Aussie, bambulla, blagodiynyi veloprokat, bratkom, casper101, casper101, chaka910, chudnoy, Daneo, Dars, deneb333, Dim-ON, dimon387, durnolyap, Endy, fleoring, galychanka, georgkys, georgkys, GERELEY, germaninthetown, GL-Lviv, gudtar, Gxost, hiza, iurii_baiurak, iv_o, jandrus, jd_alex, jenice, Johnson UA, kmg_lv, korzhuk, kosmo.ua, kucher, Leksyk, leonidovod, leroykendall, lmn, makstur, MasterYura, Maters, mega_babak, Mi parolas Esperanton, Mikola_sat, mishakovalyk, MisterIf, MisterR, nalgi72, naventaar, NemoInFire, nemos, ninelt, NoobFromUA, Nyurko, o_chub / oleksa.b, olekss22, Olkos, pai1ripe, Plague, porfavor, pushebx, Puzl, qa1000, respect14, RJSnaiper, roman81, romantomchak, RST, sables, Sehrg-Gut, sigito, slava_ukraine, slko, steeple, StiN, strategic, stwnik, sunshadow, Svitlana, swinomatka, Tantras, tarasidze, tarpyt, timoha, turba, UkrFalcon, ukrparaxod, ulyana, urshula, veto, VicOd, victor.iskruk, vifilo, Vit2008, vovandir, vovchyck, Vurrek, Wivern, Wivern, wolesj, www2702, xbxb, xfsthe, yan4ous, yarik_ratnik, yavva, Yelovbasted, yr, yura_3d, Yuriy88, ZiC, ZNM07, zon, Ющук, Янко Гортало
    Видео
    Идентификатор                            : 0
    Формат                                   : MPEG-4 Visual
    Профиль формата                          : Advanced Simple@L5
    Параметр BVOP формата                    : 1
    Параметр QPel формата                    : Нет
    Параметр GMC формата                     : Без точки перехода
    Параметр матрицы формата                 : Default (MPEG)
    Идентификатор кодека                     : XVID
    Идентификатор кодека/Подсказка           : XviD
    Продолжительность                        : 1 ч. 55 м.
    Битрейт                                  : 1341 Кбит/сек
    Ширина                                   : 720 пикселей
    Высота                                   : 304 пикселя
    Соотношение сторон                       : 2,35:1
    Частота кадров                           : 23,976 кадра/сек
    Цветовое пространство                    : YUV
    Субдискретизация насыщенности            : 4:2:0
    Битовая глубина                          : 8 бит
    Тип развёртки                            : Прогрессивная
    Метод сжатия                             : С потерями
    Бит/(Пиксели*Кадры)                      : 0.255
    Размер потока                            : 1,08 Гбайт (75%)
    Библиотека кодирования                   : XviD 73
    Аудио
    Идентификатор                            : 1
    Формат                                   : AC-3
    Формат/Информация                        : Audio Coding 3
    Расширение режима                        : CM (complete main)
    Параметр Endianness формата              : Big
    Идентификатор кодека                     : 2000
    Продолжительность                        : 1 ч. 55 м.
    Вид битрейта                             : Постоянный
    Битрейт                                  : 448 Кбит/сек
    Каналы                                   : 6 каналов
    Расположение каналов                     : Front: L C R, Side: L R, LFE
    Частота                                  : 48,0 КГц
    Битовая глубина                          : 16 бит
    Метод сжатия                             : С потерями
    Размер потока                            : 370 Мбайт (25%)
    Выравнивание                             : Разделение по промежуткам
    Продолжительность промежутка             : 42  мс. (1,00 видеокадр)
    Время предзагрузки промежутка            : 500  мс.

    Скріншоти

    Скачать .torrent

    Скачать торрент-файл бесплатно и на максимальной скорости!

    Как скачивать? · Что такое торрент? · Рейтинг и ограничения

    !ВНИМАНИЕ!
    Сайт не распространяет и не хранит электронные версии произведений, а занимается лишь лишь предоставлением доступа к создаваемому пользователями каталогу ссылок на торрент-файлы, которые содержат только списки хеш-сумм, убедительная просьба с жалобами обращаться напрямую к пользователю. Файлы для обмена на трекере предоставлены пользователями сайта, и администрация не несёт ответственности за их содержание. Просьба не заливать файлы, защищенные авторскими правами, а также файлы нелегального содержания!


    _________________
    [Профиль] [ЛС]

    -746

    Создавать темы 03-Июн-2016 21:40 (спустя 5 месяцев 30 дней)

           

    Топік був перенесений з форуму Закордонне кіно українською у форум Фільми 2011-2015 українською

    rechyn

    _________________
    Как бы ты высоко не летал, не забывай, с кем ты ползал..
     
    Показать сообщения:    
    Ответить на тему

    Текущее время: Сегодня, в 16:10

    Часовой пояс: GMT + 2



    Вы не можете начинать темы
    Вы не можете отвечать на сообщения
    Вы не можете редактировать свои сообщения
    Вы не можете удалять свои сообщения
    Вы не можете голосовать в опросах
    Вы не можете прикреплять файлы к сообщениям
    Вы не можете скачивать файлы