BitTorrentTracker PerecTracker.org
BitTorrentTracker PerecTracker.org
    
Регистрация  ·  Вход
 
 · 
Забыли пароль?

  • Невиновен / L'innocent (Пьер Бутрон / Pierre Boutron) [2012, Франция, криминальная драма, DVB] Original (Fre) + Sub (rus)

    Ответить на тему
     
    Автор Сообщение

    Columb

    Создавать темы 02-Авг-2013 14:45

           

    [Цитировать]

    Невиновен
    L'innocent

    -Страна: Франция
    Жанр: криминальная драма
    Год выпуска: 2012
    Продолжительность: 01:28:08
    Перевод: Субтитры (перевод А. Вижье, М. Лабори, Éclair Group)
    Cубтитры: русские
    Оригинальная аудиодорожка: французский
    Режиссер: Пьер Бутрон / Pierre Boutron
    В ролях: Патрик Тимзит / Patrick Timsit (Théo Grangier), Фредерик Пьерро / Frédéric Pierrot (le gendarme Thierry Deville), Изабель Желина / Isabelle Gélinas (Me Sophie Charpentier), Мари Кремер / Marie Kremer (Chantal Laborde), Ванесса Ларре / Vanessa Larré (Martine Legendre)
    Описание: Фильм основан на реальных событиях 1978-80 годов. Тео Гранжье, человек без образования, не имеющий ни родителей, ни семьи, оказывается вовлеченным в ограбление двумя рецидивистами. Но во время ограбления был убит полицейский. При этом пойман и арестован оказался только Тео, которого и обвинили в убийстве представителя власти, хотя остальные двое преступников не были найдены и вина Гранжье в убийстве не была однозначно доказана. Он был приговорен к высшей мере наказания – смертной казни. Процесс всколыхнул французское общество – в защиту Тео Гранжье выступил Жан-Поль Сартр…
    Доп. информация: Запись со спутника (киноканал TV5MONDE).
    Номинация на лучший телефильм Festival de la fiction TV de la Rochelle 2012.

    Сэмпл
    Качество видео: DVB
    Формат видео: MPEG-PS
    Видео: MPEG Video 2, 720x576@1024x576 (16:9), 25 fps, ~2424 kbps avg, 0.234 bit/pixel
    Аудио: Французский (48 kHz, MPEG Audio 2, 2 ch, ~192.00 kbps avg)
    Формат субтитров: hardsub (неотключаемые)

    MediaInfo

    Полное имя : H:\My Torrents\[apreder]L'innocent(2012)DVB.mpg
    Формат : MPEG-PS
    Размер файла : 1,64 Гбайт
    Продолжительность : 1 ч. 28 м.
    Режим общего битрейта : Переменный
    Общий поток : 2669 Кбит/сек
    Видео
    Идентификатор : 224 (0xE0)
    Формат : MPEG Video
    Версия формата : Version 2
    Профиль формата : Main@Main
    Параметр BVOP формата : Да
    Параметр матрицы формата : Выборочная
    Параметр GOP формата : M=3, N=24
    Продолжительность : 1 ч. 28 м.
    Вид битрейта : Переменный
    Битрейт : 2424 Кбит/сек
    Ширина : 720 пикселей
    Высота : 576 пикселей
    Соотношение сторон : 16:9
    Частота кадров : 25,000 кадров/сек
    Стандарт вещания : PAL
    Цветовое пространство : YUV
    Субдискретизация насыщенности : 4:2:0
    Битовая глубина : 8 бит
    Тип развёртки : Чересстрочная
    Порядок развёртки : Верхнее поле первое
    Метод сжатия : С потерями
    Бит/(Пиксели*Кадры) : 0.234
    TimeCode_FirstFrame : 00:00:00:00
    TimeCode_Source : Group of pictures header
    Размер потока : 1,49 Гбайт (91%)
    Аудио
    Идентификатор : 192 (0xC0)
    Формат : MPEG Audio
    Версия формата : Version 1
    Профиль формата : Layer 2
    Продолжительность : 1 ч. 28 м.
    Вид битрейта : Постоянный
    Битрейт : 192 Кбит/сек
    Каналы : 2 канала
    Частота : 48,0 КГц
    Метод сжатия : С потерями
    Размер потока : 121 Мбайт (7%)

    Скриншот c названием фильма

    Скриншоты

    Скачать .torrent

    Скачать торрент-файл бесплатно и на максимальной скорости!

    Как скачивать? · Что такое торрент? · Рейтинг и ограничения

    !ВНИМАНИЕ!
    Сайт не распространяет и не хранит электронные версии произведений, а занимается лишь лишь предоставлением доступа к создаваемому пользователями каталогу ссылок на торрент-файлы, которые содержат только списки хеш-сумм, убедительная просьба с жалобами обращаться напрямую к пользователю. Файлы для обмена на трекере предоставлены пользователями сайта, и администрация не несёт ответственности за их содержание. Просьба не заливать файлы, защищенные авторскими правами, а также файлы нелегального содержания!

    [Профиль] [ЛС]
    Показать сообщения:    
    Ответить на тему

    Текущее время: Сегодня, в 23:17

    Часовой пояс: GMT + 2



    Вы не можете начинать темы
    Вы не можете отвечать на сообщения
    Вы не можете редактировать свои сообщения
    Вы не можете удалять свои сообщения
    Вы не можете голосовать в опросах
    Вы не можете прикреплять файлы к сообщениям
    Вы не можете скачивать файлы