BitTorrentTracker PerecTracker.org
BitTorrentTracker PerecTracker.org
    
Регистрация  ·  Вход
 
 · 
Забыли пароль?

  • Дракула. Невідома історія / Dracula Untold (Ґарі Шор) [2014 р., екшн, драма, фентезі, жахи, воєнний, BDRip] DUB (Line In) Ukr + Original

    Ответить на тему
     
    Автор Сообщение

    older

    Создавать темы 04-Дек-2015 11:45

           

    [Цитировать]

    Дракула. Невідома історія / Dracula Untold

    Рік випуску: 2014
    Країна: США
    Кіностудія / кінокомпанія: Universal Pictures, Legendary Pictures, Michael De Luca Productions; мейджор – Universal Pictures
    Жанр: екшн, драма, фентезі, жахи, воєнний
    Тривалість: 01:32:08
    Субтитри: українська, форсовані (на турецьку мову)
    Переклад: дубльований (професійний) - Line In
    Аудіодоріжка: українська, англійська-Режисер: Ґарі Шор
    Сценарій: Метт Сазама, Берк Шарплесс, Брем Стокер
    Продюсер: Майкл Де Лука, Джозеф М. Карачіоло мл., Джон Дж. Джашні-Світова прем'єра: 1 жовтня 2014
    Прем'єра в Україні: 2 жовтня 2014, «B&H Film Distribution Company»
    Обмеження за віком: немає- -Актори: Люк Еванс / Luke Evans, Сара Ґейдон / Sarah Gadon, Домінік Купер / Dominic Cooper, Арт Паркінсон / Art Parkinson, Чарльз Денс / Charles Dance, Діармейд Мурта / Diarmaid Murtagh, Пол Кей / Paul Kaye-Сюжет: Невідома історія кривавого правителя Румунії – князя Влада Дракули. Темні і жорстокі часи. Молодий і харизматичний князь змушений продати душу дияволові, щоб захистити свою землю і своє кохання. Так на світ з'являється наймогутніший вампір, який і досі викликає страх і тремтіння...-Формат: AVI
    Якість: BDRip
    Відео кодек: XviD
    Відео: 720x304 (2,35:1), 1856 kbps, 23.976 fps, 0.354 bit/pixel
    Аудіо 1: AC3, 48 kHz, 2 ch, 192 kbps - Line In
    Аудіо 2: AC3, 48 kHz, 2 ch, 192 kbps - Original
    Субтитри: українська, форсовані (на турецьку мову), тип: програмні (м'які), формат: srt-Джерело:

    MediaInfo

    Общее
    Полное имя                               : \Dracula Untold (2014) BDRip [UKR_ENG] [Hurtom].avi
    Формат                                   : AVI
    Формат/Информация                        : Audio Video Interleave
    Размер файла                             : 1,45 Гбайт
    Продолжительность                        : 1 ч. 32 м.
    Общий поток                              : 2254 Кбит/сек
    Программа кодирования                    : VirtualDubModUkr 1.5.10.2 (build 2542/release)
    Библиотека кодирования                   : VirtualDubMod build 2542/release
    Видео
    Идентификатор                            : 0
    Формат                                   : MPEG-4 Visual
    Профиль формата                          : Advanced Simple@L5
    Параметр BVOP формата                    : 1
    Параметр QPel формата                    : Нет
    Параметр GMC формата                     : Без точки перехода
    Параметр матрицы формата                 : Выборочная
    Идентификатор кодека                     : XVID
    Идентификатор кодека/Подсказка           : XviD
    Продолжительность                        : 1 ч. 32 м.
    Битрейт                                  : 1856 Кбит/сек
    Ширина                                   : 720 пикселей
    Высота                                   : 304 пикселя
    Соотношение сторон                       : 2,35:1
    Частота кадров                           : 23,976 кадра/сек
    Цветовое пространство                    : YUV
    Субдискретизация насыщенности            : 4:2:0
    Битовая глубина                          : 8 бит
    Тип развёртки                            : Прогрессивная
    Метод сжатия                             : С потерями
    Бит/(Пиксели*Кадры)                      : 0.354
    Размер потока                            : 1,19 Гбайт (82%)
    Библиотека кодирования                   : XviD 73
    Аудио #1
    Идентификатор                            : 1
    Формат                                   : AC-3
    Формат/Информация                        : Audio Coding 3
    Расширение режима                        : CM (complete main)
    Параметр Endianness формата              : Big
    Идентификатор кодека                     : 2000
    Продолжительность                        : 1 ч. 32 м.
    Вид битрейта                             : Постоянный
    Битрейт                                  : 192 Кбит/сек
    Каналы                                   : 2 канала
    Расположение каналов                     : Front: L R
    Частота                                  : 48,0 КГц
    Битовая глубина                          : 16 бит
    Метод сжатия                             : С потерями
    Размер потока                            : 127 Мбайт (9%)
    Выравнивание                             : Разделение по промежуткам
    Продолжительность промежутка             : 42  мс. (1,00 видеокадр)
    Время предзагрузки промежутка            : 500  мс.
    Аудио #2
    Идентификатор                            : 2
    Формат                                   : AC-3
    Формат/Информация                        : Audio Coding 3
    Расширение режима                        : CM (complete main)
    Параметр Endianness формата              : Big
    Идентификатор кодека                     : 2000
    Продолжительность                        : 1 ч. 32 м.
    Вид битрейта                             : Постоянный
    Битрейт                                  : 192 Кбит/сек
    Каналы                                   : 2 канала
    Расположение каналов                     : Front: L R
    Частота                                  : 48,0 КГц
    Битовая глубина                          : 16 бит
    Метод сжатия                             : С потерями
    Размер потока                            : 127 Мбайт (9%)
    Выравнивание                             : Разделение по промежуткам
    Продолжительность промежутка             : 42  мс. (1,00 видеокадр)
    Время предзагрузки промежутка            : 500  мс.

    Скріншоти

    Скачать .torrent

    Скачать торрент-файл бесплатно и на максимальной скорости!

    Как скачивать? · Что такое торрент? · Рейтинг и ограничения

    !ВНИМАНИЕ!
    Сайт не распространяет и не хранит электронные версии произведений, а занимается лишь лишь предоставлением доступа к создаваемому пользователями каталогу ссылок на торрент-файлы, которые содержат только списки хеш-сумм, убедительная просьба с жалобами обращаться напрямую к пользователю. Файлы для обмена на трекере предоставлены пользователями сайта, и администрация не несёт ответственности за их содержание. Просьба не заливать файлы, защищенные авторскими правами, а также файлы нелегального содержания!


    _________________
    [Профиль] [ЛС]

    -746

    Создавать темы 03-Июн-2016 21:40 (спустя 5 месяцев 30 дней)

           

    Топік був перенесений з форуму Закордонне кіно українською у форум Фільми 2011-2015 українською

    rechyn

    _________________
    Как бы ты высоко не летал, не забывай, с кем ты ползал..
     
    Показать сообщения:    
    Ответить на тему

    Текущее время: Сегодня, в 22:15

    Часовой пояс: GMT + 2



    Вы не можете начинать темы
    Вы не можете отвечать на сообщения
    Вы не можете редактировать свои сообщения
    Вы не можете удалять свои сообщения
    Вы не можете голосовать в опросах
    Вы не можете прикреплять файлы к сообщениям
    Вы не можете скачивать файлы