Register  ·  Log in
Forgot password?

  • Файрболл 500 / Поворотный пункт / Fireball 500 (Уильям Эшер / William Asher) [1966, США, комедия, HDTVRip] DVO (НТВ+)

    Reply to topic
    Author Message


    Post 02-Aug-2013 15:33



    Файрболл 500 / Поворотный пункт / Fireball 500-Страна: США
    Жанр: комедия
    Год выпуска: 1966
    Продолжительность: 01:28:33
    Перевод: Профессиональный (двухголосый закадровый) НТВ+
    Cубтитры: нет
    Режиссер: Уильям Эшер / William Asher
    В ролях: Фрэнки Авалон, Аннетт Фаничелло, Фабиан, Чилл Уиллс, Харви Лембек, Джули Пэрриш, Дуглас Хендерсон, Бэйнес Баррон, Сэнди Рид, Мэри Хьюз и другие
    Описание: Гонщик приезжает в город в надежде подзаработать. Он соглашается принять участие в вечерней гонке и оказывается впутанным в контрабанду.
    Доп. информация: Дорожка взята у Valeronius
    За предоставленный рип благодарим Ledy_X
    "Спасибы" просьба ПИСАТЬ в теме, тем самым вы продлеваете жизнь раздаче.
    Качество видео: HDTVRip [Исходник 1080i]
    Формат видео: AVI
    Качество видео: HDTVRip
    Формат видео: AVI
    Видео: 720x304 (2.37:1), 25 fps, XviD build 50 ~2164 kbps avg, 0.40 bit/pixel
    Аудио: 48 kHz, AC3 Dolby Digital, 2/0 (L,R) ch, ~192 kbps


    Поворотный пункт - Fireball 500 [Rip by Ledy_X].avi
    Format : AVI
    Format/Info : Audio Video Interleave
    File size : 1.46 GiB
    Duration : 1h 28mn
    Overall bit rate : 2 366 Kbps
    Movie name : Поворотный пункт - Fireball 500
    Director : Rip by Ledy_X
    Writing application : Nandub v1.0rc2
    Copyright : Edich2
    Comment :
    ID : 0
    Format : MPEG-4 Visual
    Format profile : Advanced Simple@L5
    Format settings, BVOP : 1
    Format settings, QPel : No
    Format settings, GMC : No warppoints
    Format settings, Matrix : Custom
    Codec ID : DX50
    Codec ID/Hint : DivX 5
    Duration : 1h 28mn
    Bit rate : 2 165 Kbps
    Width : 720 pixels
    Height : 304 pixels
    Display aspect ratio : 2.35:1
    Frame rate : 25.000 fps
    Color space : YUV
    Chroma subsampling : 4:2:0
    Bit depth : 8 bits
    Scan type : Progressive
    Compression mode : Lossy
    Bits/(Pixel*Frame) : 0.396
    Stream size : 1.34 GiB (91%)
    Writing library : XviD 1.2.1 (UTC 2008-12-04)
    ID : 1
    Format : AC-3
    Format/Info : Audio Coding 3
    Mode extension : CM (complete main)
    Format settings, Endianness : Big
    Codec ID : 2000
    Duration : 1h 28mn
    Bit rate mode : Constant
    Bit rate : 192 Kbps
    Channel(s) : 2 channels
    Channel positions : Front: L R
    Sampling rate : 48.0 KHz
    Bit depth : 16 bits
    Compression mode : Lossy
    Delay relative to video : 2ms
    Stream size : 122 MiB (8%)
    Alignment : Split accross interleaves
    Interleave, duration : 40 ms (1.00 video frame)
    Interleave, preload duration : 500 ms


    Download .torrent

    Download free and at maximum speed!

    How to Download? · What is a torrent? · Ratings and Limitations

    The site does not extend and does not store electronic(digital) versions of products, and only gives access to a reference catalogue created by users on torrent-files which contain only lists of the hash-sums, the earnest entreaty, with complaints(abuse) to access directly to the user. Files for an exchange on tracker are given by users of a site, and the administration does not bear the responsibility for their maintenance. The request to not fill in the files protected by copyrights, and also files of the illegal maintenance!

    [Profile] [PM]
    Display posts from previous:    
    Reply to topic

    The time now is: Today 16:00

    All times are GMT + 3 Hours

    You cannot post new topics in this forum
    You cannot reply to topics in this forum
    You cannot edit your posts in this forum
    You cannot delete your posts in this forum
    You cannot vote in polls in this forum
    You cannot attach files in this forum
    You cannot download files in this forum