BitTorrentTracker PerecTracker.org
BitTorrentTracker PerecTracker.org
    
Регистрация  ·  Вход
 
 · 
Забыли пароль?

  • Люди Ікс: Дні минулого майбутнього / X-Men: Days of Future Past (Браян Сінгер) [2014 р., бойовик, пригодницький, трилер, фантастика, BDRip] DUB (Blu-ray Disc) Ukr

    Ответить на тему
     
    Автор Сообщение

    older

    Создавать темы 04-Дек-2015 10:44

           

    [Цитировать]

    Люди Ікс: Дні минулого майбутнього / X-Men: Days of Future Past

    Рік випуску: 2014
    Країна: США, Великобританія, Канада
    Кіностудія / кінокомпанія: Twentieth Century Fox Film Corporation, Marvel Entertainment, TSG Entertainment
    Жанр: бойовик, пригодницький, трилер, фантастика
    Тривалість: 02:11:36
    Субтитри: відсутні
    Переклад: дубльований (професійний) - Blu-ray Disc
    Аудіодоріжка: українська-Режисер: Браян Сінгер
    Сценарій: Саймон Кінберг, Джейн Голдман, Меттью Вон
    Продюсер: Саймон Кінберг, Хатч Паркер, Лорен Шулер Доннер-Світова прем'єра: 20 травня 2011
    Прем'єра в Україні: 22 травня 2014
    Обмеження за віком: немає- -Актори: Г'ю Джекмен (Hugh Jackman), Джеймс Макевой (James McAvoy), Майкл Фассбендер (Michael Fassbender), Дженніфер Лоуренс (Jennifer Lawrence), Геллі Беррі (Halle Berry), Єн Маккеллен (Ian McKellen), Патрік Стюарт (Patrick Stewart)-Сюжет: Люди Ікс відправляють Росомаху в минуле, щоб змінити хід важливої історичної події, яка може глобально вплинути на співіснування людей і мутантів.-Формат: AVI
    Якість: BDRip
    Відео кодек: XviD
    Відео: 720x304 (2,35:1), 1916 kbps, 23.976 fps, 0.365 bit/pixel
    Аудіо: AC3, 48 kHz, 6 ch, 448 kbps-Джерело:

    MediaInfo

    Общее
    Полное имя                               : \X-Men Days of Future Past (2014) BDRip.avi
    Формат                                   : AVI
    Формат/Информация                        : Audio Video Interleave
    Профиль формата                          : OpenDML
    Размер файла                             : 2,18 Гбайт
    Продолжительность                        : 2 ч. 11 м.
    Общий поток                              : 2376 Кбит/сек
    Название фильма                          : X-Men: Days of Future Past (2014)
    Жанр                                     : Action/Adventure/Sci-Fi
    Программа кодирования                    : VirtualDubModUkr 1.5.10.2 (build 2542/release)
    Библиотека кодирования                   : VirtualDubMod build 2542/release
    Формат оригинала/Имя                     : Movie
    Примечание                               : BDRip
    Видео
    Идентификатор                            : 0
    Формат                                   : MPEG-4 Visual
    Профиль формата                          : Advanced Simple@L5
    Параметр BVOP формата                    : 1
    Параметр QPel формата                    : Нет
    Параметр GMC формата                     : Без точки перехода
    Параметр матрицы формата                 : Выборочная
    Идентификатор кодека                     : XVID
    Идентификатор кодека/Подсказка           : XviD
    Продолжительность                        : 2 ч. 11 м.
    Битрейт                                  : 1916 Кбит/сек
    Ширина                                   : 720 пикселей
    Высота                                   : 304 пикселя
    Соотношение сторон                       : 2,35:1
    Частота кадров                           : 23,976 кадра/сек
    Цветовое пространство                    : YUV
    Субдискретизация насыщенности            : 4:2:0
    Битовая глубина                          : 8 бит
    Тип развёртки                            : Прогрессивная
    Метод сжатия                             : С потерями
    Бит/(Пиксели*Кадры)                      : 0.365
    Размер потока                            : 1,76 Гбайт (81%)
    Библиотека кодирования                   : XviD 73
    Аудио
    Идентификатор                            : 1
    Формат                                   : AC-3
    Формат/Информация                        : Audio Coding 3
    Расширение режима                        : CM (complete main)
    Параметр Endianness формата              : Big
    Идентификатор кодека                     : 2000
    Продолжительность                        : 2 ч. 11 м.
    Вид битрейта                             : Постоянный
    Битрейт                                  : 448 Кбит/сек
    Каналы                                   : 6 каналов
    Расположение каналов                     : Front: L C R, Side: L R, LFE
    Частота                                  : 48,0 КГц
    Битовая глубина                          : 16 бит
    Метод сжатия                             : С потерями
    Размер потока                            : 422 Мбайт (19%)
    Выравнивание                             : Разделение по промежуткам
    Продолжительность промежутка             : 42  мс. (1,00 видеокадр)
    Время предзагрузки промежутка            : 500  мс.

    Скріншоти

    Скачать .torrent

    Скачать торрент-файл бесплатно и на максимальной скорости!

    Как скачивать? · Что такое торрент? · Рейтинг и ограничения

    !ВНИМАНИЕ!
    Сайт не распространяет и не хранит электронные версии произведений, а занимается лишь лишь предоставлением доступа к создаваемому пользователями каталогу ссылок на торрент-файлы, которые содержат только списки хеш-сумм, убедительная просьба с жалобами обращаться напрямую к пользователю. Файлы для обмена на трекере предоставлены пользователями сайта, и администрация не несёт ответственности за их содержание. Просьба не заливать файлы, защищенные авторскими правами, а также файлы нелегального содержания!


    _________________
    [Профиль] [ЛС]

    -746

    Создавать темы 03-Июн-2016 21:40 (спустя 5 месяцев 30 дней)

           

    Топік був перенесений з форуму Закордонне кіно українською у форум Фільми 2011-2015 українською

    rechyn

    _________________
    Как бы ты высоко не летал, не забывай, с кем ты ползал..
     
    Показать сообщения:    
    Ответить на тему

    Текущее время: Сегодня, в 08:11

    Часовой пояс: GMT + 2



    Вы не можете начинать темы
    Вы не можете отвечать на сообщения
    Вы не можете редактировать свои сообщения
    Вы не можете удалять свои сообщения
    Вы не можете голосовать в опросах
    Вы не можете прикреплять файлы к сообщениям
    Вы не можете скачивать файлы