BitTorrentTracker PerecTracker.org
BitTorrentTracker PerecTracker.org
    
Регистрация  ·  Вход
 
 · 
Забыли пароль?

  • Такси / Taxi (Джафар Панахи / Jafar Panahi ) [2015, Иран, Драма, комедия, WEB-DL, HD (720p)] DUB

    Ответить на тему
     
    Автор Сообщение

    Flirldrerve

    Создавать темы 04-Дек-2015 09:45

           

    [Цитировать]

    Такси / Taxi
    -
    8.039 / 10 7.60 / 10
    -Год выпуска: 2015
    Страна: Иран
    Жанр: Драма, комедия
    Продолжительность: 01:21:09
    Перевод: Дублированный (iTunes)
    Оригинальная аудиодорожка: Нет
    Cубтитры: Нет
    Режиссёр: Джафар Панахи
    Сценарий: Джафар Панахи
    Продюсер: Джафар Панахи
    Оператор: Джафар Панахи
    Монтаж: Джафар Панахи
    В ролях: Джафар Панахи
    Сборы в России: $8 233
    Мировая премьера: 6 февраля 2015
    Премьера (РФ): 17 сентября 2015, «Артхаус»
    Описание: Желтое такси колесит по ярким и красочным улицам Тегерана. В такси садятся разнообразные пассажиры, каждый из которых искренне выражает свои взгляды во время беседы с водителем. А водителем является не кто иной, как сам режиссер фильма Джафар Панахи.-Качество исходника: WEB-DL 720p (NNMClub)
    Качество: WEB-DL
    Тип: HD (720p)
    Контейнер: M4V
    Видео: H.264, 1280x720, 16:9, 3 967 Kbps, 24.000 fps
    Аудио 1: Русский/Дублированный (iTunes), AAC / 2.0 / 157 Kbps / 48.0 KHz
    Аудио 2: Русский/Дублированный (iTunes), AC-3 / 5.1 / 384 Kbps / 48.0 KHz
    -

    iTunes Meta Tags

    Sort Name: Такси
    XID: Apple:vendor_id:2015-885646
    contentID: 1056614880
    Copyright: © 2015 Jafar Panahi Film Productions
    Screenwriters: Джафар Панахи
    Producers: Джафар Панахи
    Director: Джафар Панахи
    Cast: Джафар Панахи
    Studio: Jafar Panahi Film Productions
    Rating: 134
    Long Description: Желтое такси колесит по ярким и красочным улицам Тегерана. В такси садятся разнообразные пассажиры, каждый из которых искренне выражает свои взгляды во время беседы с водителем. А водителем является не кто иной, как сам режиссер фильма Джафар Панахи.
    Description: Желтое такси колесит по ярким и красочным улицам Тегерана. В такси садятся разнообразные пассажиры, каждый из которых искренне выражает свои взгляды во время беседы с водителем. А водителем является не кто иной, как сам режиссер фильма Джафар Панахи.
    Release Date: 2015-02-06T08:00:00Z
    Genre: Драма
    Artist: Jafar Panahi
    Name: Такси

    MediaInfo

    General
    Complete name : /Users/imac/HandBrake/Taxi.WEB-DL.720p.m4v
    Format : MPEG-4
    Codec ID : M4V
    File size : 2.56 GiB
    Duration : 1h 21mn
    Overall bit rate mode : Variable
    Overall bit rate : 4 513 Kbps
    Movie name : Такси
    Performer : Jafar Panahi
    Director : Джафар Панахи
    Actor : Джафар Панахи
    Screenplay by : Джафар Панахи
    Producer : Джафар Панахи
    Production studio : Jafar Panahi Film Productions
    Genre : Драма
    ContentType : Short Film
    Description : Желтое такси колесит по ярким и красочным улицам Тегерана. В такси садятся разнообразные пассажиры, каждый из которых искренне выражает свои взгляды во время беседы с водителем. А водителем является не кто иной, как сам режиссер фильма Джафар Панахи.
    Recorded date : UTC 2015-02-06 08:00:00
    Encoded date : UTC 2015-12-03 17:37:39
    Tagged date : UTC 2015-12-03 17:38:26
    Copyright : © 2015 Jafar Panahi Film Productions
    Cover : Yes
    Rating : None
    Title/Sort : Такси
    LongDescription : Желтое такси колесит по ярким и красочным улицам Тегерана. В такси садятся разнообразные пассажиры, каждый из которых искренне выражает свои взгляды во время беседы с водителем. А водителем является не кто иной, как сам режиссер фильма Джафар Панахи.
    HDVideo : Yes
    AppleStoreCatalogID : 1056614880
    Vendor : Apple:vendor_id:2015-885646
    ContentRating : ru-movie|12+|200|
    Video #1
    ID : 1
    Format : AVC
    Format/Info : Advanced Video Codec
    Format profile : High@L3.1
    Format settings, CABAC : No
    Format settings, ReFrames : 2 frames
    Format settings, GOP : M=2, N=90
    Codec ID : avc1
    Codec ID/Info : Advanced Video Coding
    Duration : 1h 21mn
    Bit rate : 3 967 Kbps
    Width : 1 280 pixels
    Height : 720 pixels
    Display aspect ratio : 16:9
    Frame rate mode : Variable
    Frame rate : 24.000 fps
    Minimum frame rate : 23.810 fps
    Maximum frame rate : 24.390 fps
    Color space : YUV
    Chroma subsampling : 4:2:0
    Bit depth : 8 bits
    Scan type : Progressive
    Bits/(Pixel*Frame) : 0.179
    Stream size : 2.25 GiB (88%)
    Title : Main Program
    Language : Persian
    Encoded date : UTC 2015-12-03 17:37:39
    Tagged date : UTC 2015-12-03 17:37:44
    Color range : Limited
    Color primaries : BT.709
    Transfer characteristics : BT.709
    Matrix coefficients : BT.709
    Video #2
    ID : 5
    Format : JPEG
    Codec ID : jpeg
    Duration : 1h 21mn
    Bit rate mode : Variable
    Bit rate : 422 bps
    Width : 640 pixels
    Height : 360 pixels
    Display aspect ratio : 16:9
    Frame rate mode : Variable
    Frame rate : 0.001 fps
    Minimum frame rate : 0.001 fps
    Maximum frame rate : 0.029 fps
    Color space : YUV
    Chroma subsampling : 4:2:0
    Bit depth : 8 bits
    Compression mode : Lossy
    Bits/(Pixel*Frame) : 1.832
    Stream size : 361 KiB (0%)
    Title : Chapter Images
    Language : Persian
    Encoded date : UTC 2015-12-03 17:37:46
    Tagged date : UTC 2015-12-03 17:37:46
    Audio #1
    ID : 2
    Format : AAC
    Format/Info : Advanced Audio Codec
    Format profile : LC
    Codec ID : 40
    Duration : 1h 21mn
    Bit rate mode : Variable
    Bit rate : 157 Kbps
    Maximum bit rate : 227 Kbps
    Channel(s) : 2 channels
    Channel positions : Front: L R
    Sampling rate : 48.0 KHz
    Compression mode : Lossy
    Stream size : 91.3 MiB (3%)
    Title : Russian Stereo
    Language : Russian
    Encoded date : UTC 2015-12-03 17:37:39
    Tagged date : UTC 2015-12-03 17:37:44
    Audio #2
    ID : 3
    Format : AC-3
    Format/Info : Audio Coding 3
    Mode extension : CM (complete main)
    Format settings, Endianness : Big
    Codec ID : ac-3
    Duration : 1h 21mn
    Bit rate mode : Constant
    Bit rate : 384 Kbps
    Channel(s) : 6 channels
    Channel positions : Front: L C R, Side: L R, LFE
    Sampling rate : 48.0 KHz
    Bit depth : 16 bits
    Compression mode : Lossy
    Stream size : 223 MiB (9%)
    Title : Russian DD 5.1
    Language : Russian
    Encoded date : UTC 2015-12-03 17:37:39
    Tagged date : UTC 2015-12-03 17:37:44
    Menu #1
    00:00:00.000 : 1
    00:12:30.000 : 2
    00:27:33.000 : 3
    00:37:37.000 : 4
    00:54:16.000 : 5
    01:07:19.000 : 6
    01:20:34.000 : 7
    Menu #2
    ID : 4
    Codec ID : text
    Duration : 1h 21mn
    Language : Persian
    Encoded date : UTC 2015-12-03 17:37:44
    Tagged date : UTC 2015-12-03 17:37:44
    Bit rate mode : CBR
    00:00:00.000 : 1
    00:12:30.000 : 2
    00:27:33.000 : 3
    00:37:37.000 : 4
    00:54:16.000 : 5
    01:07:19.000 : 6
    01:20:34.000 : 7

    Скриншоты

    -

    Релиз подготовлен для просмотра на Apple TV, iPad, iPhone, iPod Touch.
    Для просмотра данного релиза на компьютере с ОС Windows рекомендуется использовать VLC media player
    Скачать .torrent

    Скачать торрент-файл бесплатно и на максимальной скорости!

    Как скачивать? · Что такое торрент? · Рейтинг и ограничения

    !ВНИМАНИЕ!
    Сайт не распространяет и не хранит электронные версии произведений, а занимается лишь лишь предоставлением доступа к создаваемому пользователями каталогу ссылок на торрент-файлы, которые содержат только списки хеш-сумм, убедительная просьба с жалобами обращаться напрямую к пользователю. Файлы для обмена на трекере предоставлены пользователями сайта, и администрация не несёт ответственности за их содержание. Просьба не заливать файлы, защищенные авторскими правами, а также файлы нелегального содержания!


    _________________
    [Профиль] [ЛС]
    Показать сообщения:    
    Ответить на тему

    Текущее время: Сегодня, в 08:26

    Часовой пояс: GMT + 2



    Вы не можете начинать темы
    Вы не можете отвечать на сообщения
    Вы не можете редактировать свои сообщения
    Вы не можете удалять свои сообщения
    Вы не можете голосовать в опросах
    Вы не можете прикреплять файлы к сообщениям
    Вы не можете скачивать файлы