BitTorrentTracker PerecTracker.org
BitTorrentTracker PerecTracker.org
    
Регистрация  ·  Вход
 
 · 
Забыли пароль?

  • Вихід: Боги та царі / Exodus: Gods and Kings (Рідлі Скот) [2014 р., бойовик, драма, пригодницький, BDRip] DUB (Blu-ray Disc) Ukr + Original + Sub Ukr/Eng

    Ответить на тему
     
    Автор Сообщение

    older

    Создавать темы 03-Дек-2015 18:17

           

    [Цитировать]

    Вихід: Боги та царі / Exodus: Gods and Kings

    Рік випуску: 2014
    Країна: Великобританія, США, Іспанія
    Кіностудія / кінокомпанія: Chernin Entertainment, Scott Free Productions, Babieka, Volcano Films
    Жанр: бойовик, драма, пригодницький
    Тривалість: 02:30:12
    Субтитри: українська, англійська (звичайні, SDH, коментарі)
    Переклад: дубльований (професійний) - Blu-ray Disc
    Аудіодоріжка: українська, англійська-Режисер: Рідлі Скот
    Сценарій: Адам Купер, Білл Колладж, Джефрі Кейн
    Продюсер: Пітер Чернін, Марк Хоффман, Майкл Шефер-Світова прем'єра: 3 грудня 2014
    Прем'єра в Україні: 1 січня 2015, «Ukrainian Film Distribution»
    Обмеження за віком: немає- -Актори: Крістіан Бейл / Christian Bale, Джоел Едґертон / Joel Edgerton, Джон Туртурро / John Turturro, Аарон Пол / Aaron Paul, Бен Мендельсон / Ben Mendelsohn, Марія Вальверде / María Valverde, Сіґурні Вівер / Sigourney Weaver, Бен Кінґслі / Ben Kingsley, Хіам Аббасс / Hiam Abbass, Ісаак Ендрюс / Isaac Andrews та інші-Сюжет: Старозавітна історія про великого пророка Мойсея і звільнення єврейського народу з єгипетського полону. Мойсей з’явився на світ у ті часи, коли фараон наказав убивати всіх новонароджених хлопчиків єврейського походження. Щоб врятувати його, мати поклала малюка в кошик з очерету та відправила вниз по Нілу. Дитину знайшла дочка фараона, яка усиновила його і ростила поруч з Рамзесом – майбутнім фараоном. Багато років потому, ставши чоловіком, Мойсей біжить з Єгипту, а потім повертається туди за велінням Господа, щоб позбавити свій народ від рабства...-Формат: AVI
    Якість: BDRip
    Відео кодек: XviD
    Відео: 720x304 (2,35:1), 1861 kbps, 23.976 fps, 0.355 bit/pixel
    Аудіо 1: AC3, 48 kHz, 6 ch, 448 kbps - DUB
    Аудіо 2: AC3, 48 kHz, 6 ch, 448 kbps - Original
    Субтитри: українська, англійська (звичайні, SDH, коментарі), тип: програмні (м'які), формат: srt-Джерело:

    Реліз

    Фільм дубльовано студією: Postmodern-Переклад: Надія Бойван
    Режисер дубляжу: Катерина Брайковська
    Менеджер проекту: Ірина Туловська
    Звукорежисер: Олександр Мостовенко
    Ролі дублювали: Андрій Твердак, Кирило Нікітенко, Юрій Висоцький, Андрій Федінчик, Катерина Буцька, Дмитро Вікулов Валерій Легін, Лариса Руснак, Катерина Брайковська, Роман Чорний, Світлана Шекера, Михайло Жонін, Олег Лепенець, Анатолій Пашнін, Максим Чумак, Наталя Задніпровська, Дмитро Гаврилов, Богдан Темченко, Сергій Солопай, Наталя Ярошенко, Євген Пашин, Андрій Мостренко, Катерина Башкіна-Зленко, Оксана Поліщук, Аліса Гур'єва, Олексій Череватенко, Юрій Сосков, Роман Макотерський

    MediaInfo

    Общее
    Полное имя                               : \Exodus Gods and Kings (2014) [ukr,eng sub-ukr,eng] BDRip [Hurtom]\Exodus Gods and Kings (2014) [ukr,eng] BDRip [Hurtom].avi
    Формат                                   : AVI
    Формат/Информация                        : Audio Video Interleave
    Профиль формата                          : OpenDML
    Размер файла                             : 2,91 Гбайт
    Продолжительность                        : 2 ч. 30 м.
    Общий поток                              : 2773 Кбит/сек
    Название фильма                          : Исход: Цари и боги / Exodus: Gods and Kings (2014) BDRip
    Режиссёр                                 : kingsize87
    Программа кодирования                    : VirtualDubModUkr 1.5.10.2 (build 2542/release)
    Библиотека кодирования                   : VirtualDubMod build 2542/release
    Правообладатель                          : HQCLUB
    Примечание                               : 03.04.2015
    Видео
    Идентификатор                            : 0
    Формат                                   : MPEG-4 Visual
    Профиль формата                          : Advanced Simple@L5
    Параметр BVOP формата                    : 1
    Параметр QPel формата                    : Нет
    Параметр GMC формата                     : Без точки перехода
    Параметр матрицы формата                 : Выборочная
    Идентификатор кодека                     : XVID
    Идентификатор кодека/Подсказка           : XviD
    Продолжительность                        : 2 ч. 30 м.
    Битрейт                                  : 1861 Кбит/сек
    Ширина                                   : 720 пикселей
    Высота                                   : 304 пикселя
    Соотношение сторон                       : 2,35:1
    Частота кадров                           : 23,976 кадра/сек
    Цветовое пространство                    : YUV
    Субдискретизация насыщенности            : 4:2:0
    Битовая глубина                          : 8 бит
    Тип развёртки                            : Прогрессивная
    Метод сжатия                             : С потерями
    Бит/(Пиксели*Кадры)                      : 0.355
    Размер потока                            : 1,95 Гбайт (67%)
    Библиотека кодирования                   : XviD 66
    Аудио #1
    Идентификатор                            : 1
    Формат                                   : AC-3
    Формат/Информация                        : Audio Coding 3
    Расширение режима                        : CM (complete main)
    Параметр Endianness формата              : Big
    Идентификатор кодека                     : 2000
    Продолжительность                        : 2 ч. 30 м.
    Вид битрейта                             : Постоянный
    Битрейт                                  : 448 Кбит/сек
    Каналы                                   : 6 каналов
    Расположение каналов                     : Front: L C R, Side: L R, LFE
    Частота                                  : 48,0 КГц
    Битовая глубина                          : 16 бит
    Метод сжатия                             : С потерями
    Размер потока                            : 481 Мбайт (16%)
    Выравнивание                             : Разделение по промежуткам
    Продолжительность промежутка             : 42  мс. (1,00 видеокадр)
    Время предзагрузки промежутка            : 500  мс.
    Аудио #2
    Идентификатор                            : 2
    Формат                                   : AC-3
    Формат/Информация                        : Audio Coding 3
    Расширение режима                        : CM (complete main)
    Параметр Endianness формата              : Big
    Идентификатор кодека                     : 2000
    Продолжительность                        : 2 ч. 30 м.
    Вид битрейта                             : Постоянный
    Битрейт                                  : 448 Кбит/сек
    Каналы                                   : 6 каналов
    Расположение каналов                     : Front: L C R, Side: L R, LFE
    Частота                                  : 48,0 КГц
    Битовая глубина                          : 16 бит
    Метод сжатия                             : С потерями
    Размер потока                            : 481 Мбайт (16%)
    Выравнивание                             : Разделение по промежуткам
    Продолжительность промежутка             : 42  мс. (1,00 видеокадр)
    Время предзагрузки промежутка            : 500  мс.

    Скріншоти

    Скачать .torrent

    Скачать торрент-файл бесплатно и на максимальной скорости!

    Как скачивать? · Что такое торрент? · Рейтинг и ограничения

    !ВНИМАНИЕ!
    Сайт не распространяет и не хранит электронные версии произведений, а занимается лишь лишь предоставлением доступа к создаваемому пользователями каталогу ссылок на торрент-файлы, которые содержат только списки хеш-сумм, убедительная просьба с жалобами обращаться напрямую к пользователю. Файлы для обмена на трекере предоставлены пользователями сайта, и администрация не несёт ответственности за их содержание. Просьба не заливать файлы, защищенные авторскими правами, а также файлы нелегального содержания!


    _________________
    [Профиль] [ЛС]

    -746

    Создавать темы 03-Июн-2016 21:40 (спустя 6 месяцев)

           

    Топік був перенесений з форуму Закордонне кіно українською у форум Фільми 2011-2015 українською

    rechyn

    _________________
    Как бы ты высоко не летал, не забывай, с кем ты ползал..
     
    Показать сообщения:    
    Ответить на тему

    Текущее время: Сегодня, в 16:11

    Часовой пояс: GMT + 2



    Вы не можете начинать темы
    Вы не можете отвечать на сообщения
    Вы не можете редактировать свои сообщения
    Вы не можете удалять свои сообщения
    Вы не можете голосовать в опросах
    Вы не можете прикреплять файлы к сообщениям
    Вы не можете скачивать файлы