Register  ·  Log in
Forgot password?

  • Выхода нет / No Escape (Джон Эрик Даудл / John Erick Dowdle) [2015, США, боевик, триллер, BDRip] Dub

    Reply to topic
    Author Message


    Post 03-Dec-2015 17:56



    Выхода нет / No Escape
    Страна: США
    Жанр: боевик, триллер
    Год выпуска: 2015
    Продолжительность: 01:43:06
    Перевод: Профессиональный (дублированный)
    Cубтитры: нет
    Оригинальная аудиодорожка: нет
    Режиссер: Джон Эрик Даудл / John Erick Dowdle
    В ролях: Оуэн Уилсон, Лэйк Белл, Пирс Броснан, Стерлинг Джеринс, Тханавут Касро, Чатчаваи Камонсакпитак, Сахайак Бунсанакит, Танапол Чуксрида, Нопханд Буньяй, Канарпат Финтиянг
    Описание: Американец вместе со своей семьей переезжает в Юго-Восточную Азию, но мирно пожить там не удается: вокруг разгорается жестокий военный переворот.
    Качество видео: BDRip (исходник No.Escape.2015.1080p.BluRay.AVC.DTS-HD.MA.5.1)
    Формат видео: AVI
    Видео: 704x384 (1.83:1), 23.976 fps, XviD build 73 ~1571 kbps avg, 0.24 bit/pixel
    Аудио: 48 kHz, AC3 Dolby Digital, 3/2 (L,C,R,l,r) + LFE ch, ~448 kbps


    Format : AVI
    Format/Info : Audio Video Interleave
    File size : 1.46 GiB
    Duration : 1h 43mn
    Overall bit rate : 2 028 Kbps
    Writing application : VirtualDubMod (build 2550/release)
    Writing library : VirtualDubMod build 2550/release
    ID : 0
    Format : MPEG-4 Visual
    Format profile : AdvancedSimple@L5
    Format settings, BVOP : Yes
    Format settings, QPel : No
    Format settings, GMC : No warppoints
    Format settings, Matrix : Custom
    Codec ID : XVID
    Codec ID/Hint : XviD
    Duration : 1h 43mn
    Bit rate : 1 571 Kbps
    Width : 704 pixels
    Height : 384 pixels
    Display aspect ratio : 16:9
    Frame rate : 23.976 fps
    Resolution : 24 bits
    Colorimetry : 4:2:0
    Scan type : Progressive
    Bits/(Pixel*Frame) : 0.242
    Stream size : 1.13 GiB (77%)
    Writing library : XviD 73
    ID : 1
    Format : AC-3
    Format/Info : Audio Coding 3
    Codec ID : 2000
    Duration : 1h 43mn
    Bit rate mode : Constant
    Bit rate : 448 Kbps
    Channel(s) : 6 channels
    Channel positions : Front: L C R, Surround: L R, LFE
    Sampling rate : 48.0 KHz
    Stream size : 330 MiB (22%)
    Alignment : Split accross interleaves
    Interleave, duration : 42 ms (1.00 video frame)
    Interleave, preload duration : 500 ms

    Скриншот c названием фильма


    Файл заменен на BDRip. Просьба перекачать торрент.
    Download .torrent

    Download free and at maximum speed!

    How to Download? · What is a torrent? · Ratings and Limitations

    The site does not extend and does not store electronic(digital) versions of products, and only gives access to a reference catalogue created by users on torrent-files which contain only lists of the hash-sums, the earnest entreaty, with complaints(abuse) to access directly to the user. Files for an exchange on tracker are given by users of a site, and the administration does not bear the responsibility for their maintenance. The request to not fill in the files protected by copyrights, and also files of the illegal maintenance!

    [Profile] [PM]
    Display posts from previous:    
    Reply to topic

    The time now is: Today 12:27

    All times are GMT + 3 Hours

    You cannot post new topics in this forum
    You cannot reply to topics in this forum
    You cannot edit your posts in this forum
    You cannot delete your posts in this forum
    You cannot vote in polls in this forum
    You cannot attach files in this forum
    You cannot download files in this forum