BitTorrentTracker PerecTracker.org
BitTorrentTracker PerecTracker.org
    
Регистрация  ·  Вход
 
 · 
Забыли пароль?

  • Стрелок в школе / Привет Герман / Школьный стрелок / Hello Herman (Мишель Дэннер / Michelle Danner) [2012, США, драма, HDRip] MVO (НТВ+) + Original Eng

    Ответить на тему
     
    Автор Сообщение

    Light

    Создавать темы 03-Дек-2015 16:56

           

    [Цитировать]

    Стрелок в школе / Привет Герман / Hello Herman
    Страна: США
    Жанр: драма
    Год выпуска: 2012
    Продолжительность: 01:27:33
    Перевод: Профессиональный (многоголосый закадровый) HD Кино 2/Кинопоказ
    Cубтитры: нет
    Оригинальная аудиодорожка: английский
    Режиссер: Мишель Дэннер / Michelle Danner
    В ролях: Норман Ридус, Гаррет Бэкстром, Марта Игареда, Роб Эстес, Сабрина Деблер, Энди МакФи, Оливия Фэй, Джейк Уайт, Алекс Нойбергер, Линдсэй Бушмен
    Описание: В одном из городов США, шестнадцатилетний Герман Ховардс приносит в свою школу пистолет, и убивает тридцать девять студентов, двух учителей и офицера полиции. Эту бойню Герман снимает на видео, и незадолго до ареста, посылает по электронной почте видео своему кумиру, известному журналисту Лаксу Моралесу. В этом видео он говорит Лаксу, что хочет рассказать свою историю в его шоу.
    Сэмпл: http://multi-up.com/1077732
    Доп.информация: В дорожке HD Кино 2 сделаны 2 небольшие вставки (1-2 секунды) с оригинальной и со старой с Кинопоказ на битые места. За дорожку спасибо ShaPreD
    Качество видео: HDRip
    Формат видео: AVI
    Видео: MPEG4, XviD, 720x384 (1.875), 23.976 fps, 1 596 Kbps (0.241 bit/pixel)
    Аудио: AC-3, 48.0 KHz, 6 ch, 384 Kbps, CBR - русский
    Аудио 2: AC-3, 48.0 KHz, 6 ch, 384 Kbps, CBR - английский

    MediaInfo

    Общее
    Полное имя : K:\Стрелок в школе.avi
    Формат : AVI
    Формат/Информация : Audio Video Interleave
    Размер файла : 1,45 Гбайт
    Продолжительность : 1 ч. 27 м.
    Общий поток : 2378 Кбит/сек
    Название фильма : Привет Герман / Стрелок в школе / Hello Herman (2012)
    Программа кодирования : VirtualDubMod 1.5.10.2 (build 2540/release)
    Библиотека кодирования : VirtualDubMod build 2540/release
    Авторское право : miha2154
    Видео
    Идентификатор : 0
    Формат : MPEG-4 Visual
    Профиль формата : Advanced Simple@L5
    Параметр BVOP формата : 1
    Параметр QPel формата : Нет
    Параметр GMC формата : Без точки перехода
    Параметр матрицы формата : Выборочная
    Идентификатор кодека : XVID
    Идентификатор кодека/Подсказка : XviD
    Продолжительность : 1 ч. 27 м.
    Битрейт : 1596 Кбит/сек
    Ширина : 720 пикселей
    Высота : 384 пикселя
    Соотношение сторон : 1,85:1
    Частота кадров : 23,976 кадра/сек
    Цветовое пространство : YUV
    Субдискретизация насыщенности : 4:2:0
    Битовая глубина : 8 бит
    Тип развёртки : Прогрессивная
    Метод сжатия : С потерями
    Бит/(Пиксели*Кадры) : 0.241
    Размер потока : 1000 Мбайт (67%)
    Библиотека кодирования : XviD 65
    Аудио #1
    Идентификатор : 1
    Формат : AC-3
    Формат/Информация : Audio Coding 3
    Расширение режима : CM (complete main)
    Параметр Endianness формата : Big
    Идентификатор кодека : 2000
    Продолжительность : 1 ч. 27 м.
    Вид битрейта : Постоянный
    Битрейт : 384 Кбит/сек
    Каналы : 6 каналов
    Расположение каналов : Front: L C R, Side: L R, LFE
    Частота : 48,0 КГц
    Метод сжатия : С потерями
    Размер потока : 240 Мбайт (16%)
    Выравнивание : Разделение по промежуткам
    Продолжительность промежутка : 42 мс. (1,00 видеокадр)
    Время предзагрузки промежутка : 500 мс.
    Заголовок : Профессиональный (многоголосый закадровый) HD Кино 2
    Аудио #2
    Идентификатор : 2
    Формат : AC-3
    Формат/Информация : Audio Coding 3
    Расширение режима : CM (complete main)
    Параметр Endianness формата : Big
    Идентификатор кодека : 2000
    Продолжительность : 1 ч. 27 м.
    Вид битрейта : Постоянный
    Битрейт : 384 Кбит/сек
    Каналы : 6 каналов
    Расположение каналов : Front: L C R, Side: L R, LFE
    Частота : 48,0 КГц
    Метод сжатия : С потерями
    Размер потока : 240 Мбайт (16%)
    Выравнивание : Разделение по промежуткам
    Продолжительность промежутка : 42 мс. (1,00 видеокадр)
    Время предзагрузки промежутка : 500 мс.
    Заголовок : Английский

    Скриншоты


    Торрент перезалит 3.12.15 - русская дорожка 2.0 с канала Кинопоказ заменена на 5.1 с канала HD Кино 2 - озвучка одинаковая
    Скачать .torrent

    Скачать торрент-файл бесплатно и на максимальной скорости!

    Как скачивать? · Что такое торрент? · Рейтинг и ограничения

    !ВНИМАНИЕ!
    Сайт не распространяет и не хранит электронные версии произведений, а занимается лишь лишь предоставлением доступа к создаваемому пользователями каталогу ссылок на торрент-файлы, которые содержат только списки хеш-сумм, убедительная просьба с жалобами обращаться напрямую к пользователю. Файлы для обмена на трекере предоставлены пользователями сайта, и администрация не несёт ответственности за их содержание. Просьба не заливать файлы, защищенные авторскими правами, а также файлы нелегального содержания!


    _________________
    [Профиль] [ЛС]
    Показать сообщения:    
    Ответить на тему

    Текущее время: Сегодня, в 09:52

    Часовой пояс: GMT + 2



    Вы не можете начинать темы
    Вы не можете отвечать на сообщения
    Вы не можете редактировать свои сообщения
    Вы не можете удалять свои сообщения
    Вы не можете голосовать в опросах
    Вы не можете прикреплять файлы к сообщениям
    Вы не можете скачивать файлы